⤤ Premium'a Yükselt
Filmbol Forum Film İndir BRRip XviD v Uçak Modu (Airplane Mode) - 2020 - TR - BRRip XviD | tt10731748

Filmbol TV kullanıma açıldı. Bu adresten giriş yapabilirsin: Giriş





Uçak Modu (Airplane Mode) - 2020 - TR - BRRip XviD | tt10731748
BroserBros
Uçak Modu (Airplane Mode) - 2020 - TR - BRRip XviD | tt10731748
1
901
  • Derecelendirme: 0/5 - 0 oy
  • 1
  • 2
  • 3
  • 4
  • 5
Konuyu Okuyanlar:1 Ziyaretçi
Şuan Online!
Filmin Yayınlanma Tarihi: 2020 
WWW
Rapor Et!
Şuan Online!
BroserBros Kurucu Admin
*******
Admin



 Uçak Modu



Sosyal medya fenomeni ve hayali moda tasarımcısı olan genç bir kız, bir trafik kazası geçirir ve bu durum onun fenomenlik kariyerini zorlayabilir. Tabii ki moda tasarımcısı da olmak onun için artık zor hale gelmiştir çünkü Ana kazadan sonra ailesi tarafından büyükbabasının yanına, köye gönderilir.

Uçak Modu (2020) (Airplane Mode) | tt10731748 Filmi Imdb'den 3,000 kişi tarafından oylandı ve 5,0 puan aldı. Bu film için editör puanı %61 olarak belirlendi. İyi Seyirler!

Teknik Detaylar

Kod :
General
Unique ID                                : 165327185658892167589146602432602330802 (0x7C60DB95625E8E35AA51F376A5EC56B2)
Complete name                            : /home/BroserBros/Desktop/2/Uçak.Modu.2020.BRRip.XviD.TR.Filmbol.avi
Format                                   : Matroska
Format version                           : Version 4
File size                                : 1.16 GiB
Duration                                 : 1 h 36 min
Overall bit rate                         : 1 716 kb/s
Movie name                               : Uçak Modu - Airplane Mode - 2020 | Filmbol.org
Encoded date                             : UTC 2021-05-28 12:18:50
Writing application                      : mkvmerge v53.0.0 ('Fool's Gold') 64-bit
Writing library                          : libebml v1.4.1 + libmatroska v1.6.2
FileExtension_Invalid                    : mkv mk3d mka mks

Video
ID                                       : 1
Format                                   : MPEG-4 Visual
Format profile                           : [email protected]
Format settings, BVOP                    : No
Format settings, QPel                    : No
Format settings, GMC                     : No warppoints
Format settings, Matrix                  : Default (H.263)
Codec ID                                 : V_MS/VFW/FOURCC / XVID
Codec ID/Hint                            : XviD
Duration                                 : 1 h 36 min
Bit rate                                 : 1 586 kb/s
Width                                    : 720 pixels
Height                                   : 360 pixels
Display aspect ratio                     : 2.000
Frame rate mode                          : Constant
Frame rate                               : 24.000 FPS
Color space                              : YUV
Chroma subsampling                       : 4:2:0
Bit depth                                : 8 bits
Scan type                                : Progressive
Compression mode                         : Lossy
Bits/(Pixel*Frame)                       : 0.255
Stream size                              : 1.07 GiB (92%)
Title                                    : Uçak Modu - Airplane Mode - 2020 | Filmbol.org
Writing library                          : Lavc58.35.100
Default                                  : Yes
Forced                                   : No

Audio
ID                                       : 2
Format                                   : MPEG Audio
Format version                           : Version 1
Format profile                           : Layer 3
Format settings                          : Joint stereo / MS Stereo
Codec ID                                 : A_MPEG/L3
Codec ID/Hint                            : MP3
Duration                                 : 1 h 36 min
Bit rate mode                            : Constant
Bit rate                                 : 128 kb/s
Channel(s)                               : 2 channels
Sampling rate                            : 48.0 kHz
Frame rate                               : 41.667 FPS (1152 SPF)
Compression mode                         : Lossy
Stream size                              : 88.4 MiB (7%)
Title                                    : Uçak Modu - Airplane Mode - 2020 | Filmbol.org
Language                                 : Turkish
Default                                  : Yes
Forced                                   : No

Text
ID                                       : 3
Format                                   : UTF-8
Codec ID                                 : S_TEXT/UTF8
Codec ID/Info                            : UTF-8 Plain Text
Duration                                 : 1 h 30 min
Bit rate                                 : 5 b/s
Count of elements                        : 120
Stream size                              : 3.89 KiB (0%)
Title                                    : Uçak Modu - Airplane Mode - 2020 | Filmbol.org
Language                                 : Turkish
Default                                  : Yes
Forced                                   : No

Film Detayları


 Uçak Modu

 Uçak Modu

 Uçak Modu


Film Fragmanı


Film İndir


Rar Şifresi: filmbol.org



Uptobox ile indir

1Fichier ile indir

1Fichier'den İndiremiyor musun? Tıklayın!












Şuan Online!
Rapor Et!
Şuan Online!
BroserBros Kurucu Admin
*******
Admin
29.05.2021 Yönetici Notu:

Kırık linkler kontrol edildi, kaldırıldı ve yenilendi. Tüm linkler tamamen çalışır durumda.


Hızlı Menü: