⤤ Premium'a Yükselt

Merhaba, Ziyaretçi. Mega linklerinin bir kısmı deaktif halde ve yenileme çalışmalarına başladık. Bu süre içinde ikinci duyuruya kadar mega linklerini raporlamayın!! x

Filmbol Forum Film İndir 720P v Örümcek Adam 3 (Spider-Man 3) - 2007 - TR+ORG - 720P | tt0413300

Filmbol TV kullanıma açıldı. Bu adresten giriş yapabilirsin: Giriş





Örümcek Adam 3 (Spider-Man 3) - 2007 - TR+ORG - 720P | tt0413300
BroserBros
Örümcek Adam 3 (Spider-Man 3) - 2007 - TR+ORG - 720P | tt0413300
18
2256
  • Derecelendirme: 0/5 - 0 oy
  • 1
  • 2
  • 3
  • 4
  • 5
Konuyu Okuyanlar:3 Ziyaretçi
Şuan Online!
Filmin Yayınlanma Tarihi: 2007 
WWW
Rapor Et!
Şuan Online!
BroserBros Kurucu Admin
*******
Admin



 Örümcek Adam 3



Peter Parker ya da Örümcek Adam, bir kez daha izleyicisi ile buluşuyor. Her ne kadar nihayet hayatını bir düzen üzerine kurmuş olsa da Peter Parker özel hayatı bir yanda, Örümcek Adam kimliği diğer yanda yaşarken zorlanır. Örümcek Adam olmanın en temel tehlikesi ise her an nerede geleceğini kestiremediği tehlikeler ile kuşatılmış olma ihtimalidir. Bu sırada Peter’ın rahatsız edici bir kibri çıkar ortaya. Sevenleri bu durumdan olumsuz etkilenirler. Sadece üzülmek açısından değil, onun sırf bu özelliğinden ötürü Venom ile Kum Adam’ın saldırılarına kulak asmayarak ailesini ve tüm sevdiklerini farkında olmadan tehlikeye atacaktır.

Örümcek Adam 3 (2007) (Spider-Man 3) | tt0413300 Filmi Imdb'den 510,000 kişi tarafından oylandı ve 6,2 puan aldı. Bu film için editör puanı %70 olarak belirlendi. İyi Seyirler!

Teknik Detaylar

Kod :
General
Unique ID                                : 27809403434406249783013111944250733456 (0x14EBE572ABB66EEAFB2ED35C55DD3390)
Complete name                            : /home/BroserBros/Desktop/6/Örümcek.Adam.2007.720p.BluRay.x264.TR.ENG.Filmbol.mkv
Format                                   : Matroska
Format version                           : Version 4
File size                                : 1.28 GiB
Duration                                 : 2 h 19 min
Overall bit rate                         : 1 315 kb/s
Movie name                               : Örümcek Adam 3 - Spider Man 3 - 2007 | Filmbol.org
Encoded date                             : UTC 2021-05-01 13:50:10
Writing application                      : mkvmerge v53.0.0 ('Fool's Gold') 64-bit
Writing library                          : libebml v1.4.1 + libmatroska v1.6.2

Video
ID                                       : 1
Format                                   : AVC
Format/Info                              : Advanced Video Codec
Format profile                           : [email protected]
Format settings                          : CABAC / 4 Ref Frames
Format settings, CABAC                   : Yes
Format settings, Reference frames        : 4 frames
Codec ID                                 : V_MPEG4/ISO/AVC
Duration                                 : 2 h 19 min
Bit rate                                 : 835 kb/s
Width                                    : 1 280 pixels
Height                                   : 528 pixels
Display aspect ratio                     : 2.40:1
Frame rate mode                          : Constant
Frame rate                               : 23.976 (24000/1001) FPS
Original frame rate                      : 23.976 (23976/1000) FPS
Color space                              : YUV
Chroma subsampling                       : 4:2:0
Bit depth                                : 8 bits
Scan type                                : Progressive
Bits/(Pixel*Frame)                       : 0.052
Stream size                              : 831 MiB (63%)
Title                                    : 720P - Filmbol.org
Writing library                          : x264 core 142 r2409 d6b4e63
Encoding settings                        : cabac=1 / ref=4 / deblock=1:-1:-1 / analyse=0x3:0x133 / me=umh / subme=9 / psy=1 / psy_rd=1.00:0.15 / mixed_ref=1 / me_range=24 / chroma_me=1 / trellis=2 / 8x8dct=1 / cqm=0 / deadzone=21,11 / fast_pskip=0 / chroma_qp_offset=-3 / threads=60 / lookahead_threads=4 / sliced_threads=0 / nr=0 / decimate=1 / interlaced=0 / bluray_compat=0 / constrained_intra=0 / bframes=3 / b_pyramid=2 / b_adapt=2 / b_bias=0 / direct=3 / weightb=1 / open_gop=0 / weightp=2 / keyint=250 / keyint_min=23 / scenecut=40 / intra_refresh=0 / rc_lookahead=60 / rc=2pass / mbtree=1 / bitrate=835 / ratetol=1.0 / qcomp=0.60 / qpmin=0 / qpmax=69 / qpstep=4 / cplxblur=20.0 / qblur=0.5 / vbv_maxrate=31250 / vbv_bufsize=31250 / nal_hrd=none / filler=0 / ip_ratio=1.40 / aq=1:1.00
Default                                  : Yes
Forced                                   : No
Color range                              : Limited
Color primaries                          : BT.709
Matrix coefficients                      : BT.709

Audio #1
ID                                       : 2
Format                                   : AC-3
Format/Info                              : Audio Coding 3
Commercial name                          : Dolby Digital
Codec ID                                 : A_AC3
Duration                                 : 2 h 19 min
Bit rate mode                            : Constant
Bit rate                                 : 384 kb/s
Channel(s)                               : 6 channels
Channel layout                           : L R C LFE Ls Rs
Sampling rate                            : 48.0 kHz
Frame rate                               : 31.250 FPS (1536 SPF)
Compression mode                         : Lossy
Delay relative to video                  : 1 s 917 ms
Stream size                              : 382 MiB (29%)
Title                                    : Türkçe - Filmbol.org
Language                                 : Turkish
Service kind                             : Complete Main
Default                                  : Yes
Forced                                   : No

Audio #2
ID                                       : 3
Format                                   : AAC LC
Format/Info                              : Advanced Audio Codec Low Complexity
Codec ID                                 : A_AAC-2
Duration                                 : 2 h 19 min
Bit rate                                 : 93.7 kb/s
Channel(s)                               : 2 channels
Channel layout                           : L R
Sampling rate                            : 48.0 kHz
Frame rate                               : 46.875 FPS (1024 SPF)
Compression mode                         : Lossy
Delay relative to video                  : -83 ms
Stream size                              : 93.3 MiB (7%)
Title                                    : Orjinal Dil - Filmbol.org
Language                                 : English
Default                                  : No
Forced                                   : No

Text
ID                                       : 4
Format                                   : UTF-8
Codec ID                                 : S_TEXT/UTF8
Codec ID/Info                            : UTF-8 Plain Text
Duration                                 : 2 h 8 min
Bit rate                                 : 39 b/s
Count of elements                        : 1136
Stream size                              : 37.1 KiB (0%)
Title                                    : Türkçe - Filmbol.org
Language                                 : Turkish
Default                                  : No
Forced                                   : No

Film Detayları


 Örümcek Adam 3

 Örümcek Adam 3

 Örümcek Adam 3


Film Fragmanı


Film İndir


Rar Şifresi: filmbol.org


Uptobox ile indir

1Fichier ile indir

1Fichier'den İndiremiyor musun? Tıklayın!












Şuan Online!
Rapor Et!
Şuan Online!
BroserBros Kurucu Admin
*******
Admin
02.05.2021 Yönetici Notu:

Kırık linkler kontrol edildi, kaldırıldı ve yenilendi. Tüm linkler tamamen çalışır durumda.
Şuan Offine!
Rapor Et!
Şuan Offine!
Osman123 Uzman Üye
**
Uzman Üye
  • Konular0
  • Mesajlar8
  • Rep puanı 0
Güzel
Şuan Offine!
Rapor Et!
Şuan Offine!
number0ne Üye
*
Üye
  • Konular0
  • Mesajlar1
  • Rep puanı 0
Teşekkürler...
Şuan Offine!
Rapor Et!
Şuan Offine!
T3R4B9T3 Üye
*
Üye
  • Konular0
  • Mesajlar1
  • Rep puanı 0
film izlicem
Şuan Offine!
Rapor Et!
Şuan Offine!
yusufbulutfb Üye
*
Üye
  • Konular0
  • Mesajlar7
  • Rep puanı 0
seri tamam elinize sağlık
Şuan Online!
Rapor Et!
Şuan Online!
myzrail Üye
*
Üye
  • Konular0
  • Mesajlar388
  • Rep puanı 0
güzel
Şuan Offine!
Rapor Et!
Şuan Offine!
Hamza31 Üye
*
Üye
  • Konular0
  • Mesajlar3
  • Rep puanı 0
Baya iyi Teşekkürler
Şuan Offine!
Rapor Et!
Şuan Offine!
Tuva Eski Premium Üye
***
Eski PR Üye
  • Konular0
  • Mesajlar38
  • Rep puanı 0
Teşekkür Ederim
Şuan Offine!
Rapor Et!
Şuan Offine!
aslan6663 Üye
*
Üye
  • Konular0
  • Mesajlar1
  • Rep puanı 0
Teşekkürler.


Hızlı Menü: