⤤ Premium'a Yükselt
Filmbol Forum Film İndir BRRip XviD v Örümcek Adam 3 (Spider-Man 3) - 2007 - TR - BRRip XviD | tt0413300

Filmbol TV kullanıma açıldı. Bu adresten giriş yapabilirsin: Giriş





Örümcek Adam 3 (Spider-Man 3) - 2007 - TR - BRRip XviD | tt0413300
BroserBros
Örümcek Adam 3 (Spider-Man 3) - 2007 - TR - BRRip XviD | tt0413300
12
1469
  • Derecelendirme: 0/5 - 0 oy
  • 1
  • 2
  • 3
  • 4
  • 5
Konuyu Okuyanlar:2 Ziyaretçi
Şuan Online!
Filmin Yayınlanma Tarihi: 2007 
WWW
Rapor Et!
Şuan Online!
BroserBros Kurucu Admin
*******
Admin



 Örümcek Adam 3



Peter Parker ya da Örümcek Adam, bir kez daha izleyicisi ile buluşuyor. Her ne kadar nihayet hayatını bir düzen üzerine kurmuş olsa da Peter Parker özel hayatı bir yanda, Örümcek Adam kimliği diğer yanda yaşarken zorlanır. Örümcek Adam olmanın en temel tehlikesi ise her an nerede geleceğini kestiremediği tehlikeler ile kuşatılmış olma ihtimalidir. Bu sırada Peter’ın rahatsız edici bir kibri çıkar ortaya. Sevenleri bu durumdan olumsuz etkilenirler. Sadece üzülmek açısından değil, onun sırf bu özelliğinden ötürü Venom ile Kum Adam’ın saldırılarına kulak asmayarak ailesini ve tüm sevdiklerini farkında olmadan tehlikeye atacaktır.

Örümcek Adam 3 (2007) (Spider-Man 3) | tt0413300 Filmi Imdb'den 510,000 kişi tarafından oylandı ve 6,2 puan aldı. Bu film için editör puanı %70 olarak belirlendi. İyi Seyirler!

Teknik Detaylar

Kod :
General
Unique ID                                : 150559087877932131783870908227120883730 (0x7144A025A465063CAD040CBFA83D6812)
Complete name                            : /home/BroserBros/Desktop/6/Örümcek.Adam.2007.BRRip.XviD.TR.Filmbol.avi
Format                                   : Matroska
Format version                           : Version 4
File size                                : 690 MiB
Duration                                 : 2 h 13 min
Overall bit rate mode                    : Variable
Overall bit rate                         : 723 kb/s
Movie name                               : Örümcek Adam 3 - Spider Man 3 - 2007 | Filmbol.org
Encoded date                             : UTC 2021-05-01 14:16:55
Writing application                      : mkvmerge v53.0.0 ('Fool's Gold') 64-bit
Writing library                          : libebml v1.4.1 + libmatroska v1.6.2
FileExtension_Invalid                    : mkv mk3d mka mks

Video
ID                                       : 1
Format                                   : MPEG-4 Visual
Format profile                           : Advanced [email protected]
Format settings                          : BVOP1 / Custom Matrix
Format settings, BVOP                    : 1
Format settings, QPel                    : No
Format settings, GMC                     : No warppoints
Format settings, Matrix                  : Custom
Codec ID                                 : V_MS/VFW/FOURCC / XVID
Codec ID/Hint                            : XviD
Duration                                 : 2 h 13 min
Bit rate                                 : 603 kb/s
Width                                    : 640 pixels
Height                                   : 272 pixels
Display aspect ratio                     : 2.35:1
Frame rate mode                          : Constant
Frame rate                               : 25.000 FPS
Color space                              : YUV
Chroma subsampling                       : 4:2:0
Bit depth                                : 8 bits
Scan type                                : Progressive
Compression mode                         : Lossy
Bits/(Pixel*Frame)                       : 0.139
Stream size                              : 576 MiB (83%)
Title                                    : Örümcek Adam 3 - Spider Man 3 - 2007 | Filmbol.org
Writing library                          : XviD 1.2.0.dev47 (UTC 2006-11-01)
Default                                  : Yes
Forced                                   : No

Audio
ID                                       : 2
Format                                   : MPEG Audio
Format version                           : Version 1
Format profile                           : Layer 3
Format settings                          : Joint stereo / MS Stereo
Codec ID                                 : A_MPEG/L3
Codec ID/Hint                            : MP3
Duration                                 : 2 h 13 min
Bit rate mode                            : Variable
Bit rate                                 : 117 kb/s
Channel(s)                               : 2 channels
Sampling rate                            : 48.0 kHz
Frame rate                               : 41.667 FPS (1152 SPF)
Compression mode                         : Lossy
Stream size                              : 112 MiB (16%)
Title                                    : Örümcek Adam 3 - Spider Man 3 - 2007 | Filmbol.org
Writing library                          : LAME3.97
Default                                  : Yes
Forced                                   : No

Film Detayları


 Örümcek Adam 3

 Örümcek Adam 3

 Örümcek Adam 3


Film Fragmanı


Film İndir


Rar Şifresi: filmbol.org



Uptobox ile indir

1Fichier ile indir

1Fichier'den İndiremiyor musun? Tıklayın!












Şuan Offine!
Rapor Et!
Şuan Offine!
cemsav97 Süper Üye
***
Super Üye
  • Konular0
  • Mesajlar78
  • Rep puanı 2
teşekkürler
Şuan Offine!
Rapor Et!
Şuan Offine!
Furkan61 Cezalı Üye
  • Konular0
  • Mesajlar288
güzel
Şuan Online!
Rapor Et!
Şuan Online!
BroserBros Kurucu Admin
*******
Admin
02.05.2021 Yönetici Notu:

Kırık linkler kontrol edildi, kaldırıldı ve yenilendi. Tüm linkler tamamen çalışır durumda.
Şuan Offine!
Rapor Et!
Şuan Offine!
Casablanca Üye
*
Üye
  • Konular0
  • Mesajlar110
  • Rep puanı 0
Teşekkür ederim
Şuan Offine!
Rapor Et!
Şuan Offine!
qurizma Üye
*
Üye
  • Konular0
  • Mesajlar11
  • Rep puanı 0
Teşekkürler.
Şuan Offine!
Rapor Et!
Şuan Offine!
Mehmet6565 Üye
*
Üye
  • Konular0
  • Mesajlar1
  • Rep puanı 0
Film çok güzel
Şuan Offine!
Rapor Et!
Şuan Offine!
batuhanplb Üye
*
Üye
  • Konular0
  • Mesajlar2
  • Rep puanı 0
Teşekkürler.
Şuan Offine!
Rapor Et!
Şuan Offine!
tebessum01 Üye
*
Üye
  • Konular0
  • Mesajlar10
  • Rep puanı 0
Teşekkürler.
Şuan Offine!
Rapor Et!
Şuan Offine!
candinc26 Üye
*
Üye
  • Konular0
  • Mesajlar43
  • Rep puanı 0
Teşekkürler.


Hızlı Menü: