⤤ Premium'a Yükselt
Filmbol Forum Film İndir 720P v Küçük Yabancı (The Little Stranger) - 2018 - TR+ORG - 720P | tt6859762

Filmbol TV kullanıma açıldı. Bu adresten giriş yapabilirsin: Giriş





Küçük Yabancı (The Little Stranger) - 2018 - TR+ORG - 720P | tt6859762
BroserBros
Küçük Yabancı (The Little Stranger) - 2018 - TR+ORG - 720P | tt6859762
2
487
  • Derecelendirme: 0/5 - 0 oy
  • 1
  • 2
  • 3
  • 4
  • 5
Konuyu Okuyanlar:1 Ziyaretçi
Şuan Online!
Filmin Yayınlanma Tarihi: 2018 
WWW
Rapor Et!
Şuan Online!
BroserBros Kurucu Admin
*******
Admin



 Küçük Yabancı



“The Little Stranger” köy doktoru olarak epey bir saygınlık kazanan Doktor Faraday’e odaklanıyor. Bir hizmetçinin oğlu olan Faraday, 1947 yılının sıcak bir yaz günü bir zamanlar annesinin çalıştığı Hundreds Hall’daki bir hastayı ziyaret eder. Hall, iki yüzyıldan daha uzun bir süredir Ayres ailesinin evidir. Ancak ev artık eskisi kadar ihtişamlı değildir ve uğursuz bir şey ev sakinlerine musallat olmuştur. Hastayla ilgilenmeye başlayan Faraday, kendi hikayesinin ailenin hikayesiyle ne kadar korkunç bir şekilde birbirine geçtiğinin farkında değildir.

Küçük Yabancı (2018) (The Little Stranger) | tt6859762 Filmi Imdb'den 10,000 kişi tarafından oylandı ve 5,5 puan aldı. Bu film için editör puanı %60 olarak belirlendi. İyi Seyirler!

Teknik Detaylar

Kod :
General
Unique ID                                : 266663016784818291910650312101415360211 (0xC89D6DCCF5184B8F7C08CFEF2D5816D3)
Complete name                            : /home/BroserBros/Desktop/7/Küçük.Yabancı.2018.720p.BluRay.x264.TR.ENG.Filmbol.mkv
Format                                   : Matroska
Format version                           : Version 4
File size                                : 1.18 GiB
Duration                                 : 1 h 51 min
Overall bit rate                         : 1 518 kb/s
Movie name                               : Küçük Yabancı - The Little Stranger - 2018 | Filmbol.org
Encoded date                             : UTC 2021-06-06 12:14:42
Writing application                      : mkvmerge v53.0.0 ('Fool's Gold') 64-bit
Writing library                          : libebml v1.4.1 + libmatroska v1.6.2

Video
ID                                       : 1
Format                                   : AVC
Format/Info                              : Advanced Video Codec
Format profile                           : [email protected]
Format settings                          : CABAC / 4 Ref Frames
Format settings, CABAC                   : Yes
Format settings, Reference frames        : 4 frames
Codec ID                                 : V_MPEG4/ISO/AVC
Duration                                 : 1 h 51 min
Bit rate                                 : 1 050 kb/s
Width                                    : 1 280 pixels
Height                                   : 682 pixels
Display aspect ratio                     : 1.85:1
Frame rate mode                          : Constant
Frame rate                               : 23.976 (24000/1001) FPS
Color space                              : YUV
Chroma subsampling                       : 4:2:0
Bit depth                                : 8 bits
Scan type                                : Progressive
Bits/(Pixel*Frame)                       : 0.050
Stream size                              : 838 MiB (69%)
Title                                    : 720P - Filmbol.org
Writing library                          : x264 core 152
Encoding settings                        : cabac=1 / ref=4 / deblock=1:-1:-1 / analyse=0x3:0x133 / me=umh / subme=9 / psy=1 / psy_rd=1.00:0.15 / mixed_ref=1 / me_range=24 / chroma_me=1 / trellis=2 / 8x8dct=1 / cqm=0 / deadzone=21,11 / fast_pskip=0 / chroma_qp_offset=-3 / threads=12 / lookahead_threads=1 / sliced_threads=0 / nr=0 / decimate=1 / interlaced=0 / bluray_compat=0 / constrained_intra=0 / bframes=3 / b_pyramid=2 / b_adapt=2 / b_bias=0 / direct=3 / weightb=1 / open_gop=0 / weightp=2 / keyint=250 / keyint_min=23 / scenecut=40 / intra_refresh=0 / rc_lookahead=60 / rc=2pass / mbtree=1 / bitrate=1050 / ratetol=1.0 / qcomp=0.60 / qpmin=0 / qpmax=69 / qpstep=4 / cplxblur=20.0 / qblur=0.5 / vbv_maxrate=31250 / vbv_bufsize=31250 / nal_hrd=none / filler=0 / ip_ratio=1.40 / aq=1:1.00
Default                                  : Yes
Forced                                   : No

Audio #1
ID                                       : 2
Format                                   : AC-3
Format/Info                              : Audio Coding 3
Commercial name                          : Dolby Digital
Codec ID                                 : A_AC3
Duration                                 : 1 h 51 min
Bit rate mode                            : Constant
Bit rate                                 : 320 kb/s
Channel(s)                               : 2 channels
Channel layout                           : L R
Sampling rate                            : 44.1 kHz
Frame rate                               : 28.711 FPS (1536 SPF)
Compression mode                         : Lossy
Delay relative to video                  : -43 ms
Stream size                              : 256 MiB (21%)
Title                                    : Türkçe - Filmbol.org
Language                                 : Turkish
Service kind                             : Complete Main
Default                                  : Yes
Forced                                   : Yes

Audio #2
ID                                       : 3
Format                                   : AAC LC
Format/Info                              : Advanced Audio Codec Low Complexity
Codec ID                                 : A_AAC-2
Duration                                 : 1 h 51 min
Bit rate                                 : 144 kb/s
Channel(s)                               : 2 channels
Channel layout                           : L R
Sampling rate                            : 48.0 kHz
Frame rate                               : 46.875 FPS (1024 SPF)
Compression mode                         : Lossy
Delay relative to video                  : -43 ms
Stream size                              : 117 MiB (10%)
Title                                    : Orijinal Dil - Filmbol.org
Language                                 : English
Default                                  : No
Forced                                   : No

Text
ID                                       : 4
Format                                   : UTF-8
Codec ID                                 : S_TEXT/UTF8
Codec ID/Info                            : UTF-8 Plain Text
Duration                                 : 1 h 43 min
Bit rate                                 : 52 b/s
Count of elements                        : 1357
Stream size                              : 39.6 KiB (0%)
Title                                    : Türkçe - Filmbol.org
Language                                 : Turkish
Default                                  : No
Forced                                   : No

Film Detayları


 Küçük Yabancı

 Küçük Yabancı

 Küçük Yabancı


Film Fragmanı


Film İndir


Rar Şifresi: filmbol.org


Uptobox ile indir

1Fichier ile indir

1Fichier'den İndiremiyor musun? Tıklayın!












Şuan Offine!
Rapor Et!
Şuan Offine!
Yusuf Selahattin Uzman Üye
**
Uzman Üye
  • Konular0
  • Mesajlar16
  • Rep puanı 0
Teşekkürler
Şuan Online!
Rapor Et!
Şuan Online!
BroserBros Kurucu Admin
*******
Admin
07.06.2021 Yönetici Notu:

Kırık linkler kontrol edildi, kaldırıldı ve yenilendi. Tüm linkler tamamen çalışır durumda.


Hızlı Menü: