⤤ Premium'a Yükselt

Merhaba, Ziyaretçi. Mega linklerinin bir kısmı deaktif halde ve yenileme çalışmalarına başladık. Bu süre içinde ikinci duyuruya kadar mega linklerini raporlamayın!! x

Filmbol Forum Film İndir BRRip XviD v Küçük Yabancı (The Little Stranger) - 2018 - TR - BRRip XviD | tt6859762

Filmbol TV kullanıma açıldı. Bu adresten giriş yapabilirsin: Giriş





Küçük Yabancı (The Little Stranger) - 2018 - TR - BRRip XviD | tt6859762
BroserBros
Küçük Yabancı (The Little Stranger) - 2018 - TR - BRRip XviD | tt6859762
1
514
  • Derecelendirme: 0/5 - 0 oy
  • 1
  • 2
  • 3
  • 4
  • 5
Konuyu Okuyanlar:3 Ziyaretçi
Şuan Online!
Filmin Yayınlanma Tarihi: 2018 
WWW
Rapor Et!
Şuan Online!
BroserBros Kurucu Admin
*******
Admin



 Küçük Yabancı



“The Little Stranger” köy doktoru olarak epey bir saygınlık kazanan Doktor Faraday’e odaklanıyor. Bir hizmetçinin oğlu olan Faraday, 1947 yılının sıcak bir yaz günü bir zamanlar annesinin çalıştığı Hundreds Hall’daki bir hastayı ziyaret eder. Hall, iki yüzyıldan daha uzun bir süredir Ayres ailesinin evidir. Ancak ev artık eskisi kadar ihtişamlı değildir ve uğursuz bir şey ev sakinlerine musallat olmuştur. Hastayla ilgilenmeye başlayan Faraday, kendi hikayesinin ailenin hikayesiyle ne kadar korkunç bir şekilde birbirine geçtiğinin farkında değildir.

Küçük Yabancı (2018) (The Little Stranger) | tt6859762 Filmi Imdb'den 10,000 kişi tarafından oylandı ve 5,5 puan aldı. Bu film için editör puanı %60 olarak belirlendi. İyi Seyirler!

Teknik Detaylar

Kod :
General
Unique ID                                : 321094991243205430988010301465662097490 (0xF190A55743C7B9C547224B7ABD248852)
Complete name                            : /home/BroserBros/Desktop/7/Küçük.Yabancı.2018.BRRip.XviD.TR.Filmbol.avi
Format                                   : Matroska
Format version                           : Version 4
File size                                : 675 MiB
Duration                                 : 1 h 51 min
Overall bit rate                         : 846 kb/s
Movie name                               : Küçük Yabancı - The Little Stranger - 2018 | Filmbol.org
Encoded date                             : UTC 2021-06-06 12:17:59
Writing application                      : mkvmerge v53.0.0 ('Fool's Gold') 64-bit
Writing library                          : libebml v1.4.1 + libmatroska v1.6.2
FileExtension_Invalid                    : mkv mk3d mka mks

Video
ID                                       : 1
Format                                   : MPEG-4 Visual
Format profile                           : Advanced [email protected]
Format settings                          : BVOP2
Format settings, BVOP                    : 2
Format settings, QPel                    : No
Format settings, GMC                     : No warppoints
Format settings, Matrix                  : Default (MPEG)
Muxing mode                              : Packed bitstream
Codec ID                                 : V_MS/VFW/FOURCC / XVID
Codec ID/Hint                            : XviD
Duration                                 : 1 h 51 min
Bit rate                                 : 716 kb/s
Width                                    : 720 pixels
Height                                   : 388 pixels
Display aspect ratio                     : 1.85:1
Frame rate mode                          : Constant
Frame rate                               : 23.976 (24000/1001) FPS
Original frame rate                      : 23.976 (23976/1000) FPS
Color space                              : YUV
Chroma subsampling                       : 4:2:0
Bit depth                                : 8 bits
Scan type                                : Progressive
Compression mode                         : Lossy
Bits/(Pixel*Frame)                       : 0.107
Stream size                              : 572 MiB (85%)
Title                                    : Küçük Yabancı - The Little Stranger - 2018 | Filmbol.org
Writing library                          : XviD 64
Default                                  : Yes
Forced                                   : No

Audio
ID                                       : 2
Format                                   : MPEG Audio
Format version                           : Version 1
Format profile                           : Layer 3
Format settings                          : Joint stereo / MS Stereo
Codec ID                                 : A_MPEG/L3
Codec ID/Hint                            : MP3
Duration                                 : 1 h 51 min
Bit rate mode                            : Constant
Bit rate                                 : 128 kb/s
Channel(s)                               : 2 channels
Sampling rate                            : 48.0 kHz
Frame rate                               : 41.667 FPS (1152 SPF)
Compression mode                         : Lossy
Stream size                              : 102 MiB (15%)
Title                                    : Küçük Yabancı - The Little Stranger - 2018 | Filmbol.org
Default                                  : Yes
Forced                                   : No

Film Detayları


 Küçük Yabancı

 Küçük Yabancı

 Küçük Yabancı


Film Fragmanı


Film İndir


Rar Şifresi: filmbol.org



Uptobox ile indir

1Fichier ile indir

1Fichier'den İndiremiyor musun? Tıklayın!












Şuan Online!
Rapor Et!
Şuan Online!
BroserBros Kurucu Admin
*******
Admin
07.06.2021 Yönetici Notu:

Kırık linkler kontrol edildi, kaldırıldı ve yenilendi. Tüm linkler tamamen çalışır durumda.


Hızlı Menü: