⤤ Premium'a Yükselt
Filmbol Forum Film İndir 3D v Jurassic World: Yıkılmış Krallık (Jurassic World: Fallen Kingdom) - 2018 - TR+ORG - 3D | tt4881806

Filmbol TV kullanıma açıldı. Bu adresten giriş yapabilirsin: Giriş





Jurassic World: Yıkılmış Krallık (Jurassic World: Fallen Kingdom) - 2018 - TR+ORG - 3D | tt4881806
BroserBros
Jurassic World: Yıkılmış Krallık (Jurassic World: Fallen Kingdom) - 2018 - TR+ORG - 3D | tt4881806
23
1787
  • Derecelendirme: 1/5 - 1 oy
  • 1
  • 2
  • 3
  • 4
  • 5
Konuyu Okuyanlar:3 Ziyaretçi
Şuan Online!
Filmin Yayınlanma Tarihi: 2018 
WWW
Rapor Et!
Şuan Online!
BroserBros Kurucu Admin
*******
Admin



 Jurassic World: Yıkılmış Krallık



İlk filmde yaşanan facianın ardından, Claire’in parkı yönetirken birer market ürünü gibi gördüğü dinozorlara olan bakış açısı değişir ve “Dinozor Koruma Grubu” isimli bir organizasyon kurar. Amacı; aktif bir yanardağın harekete geçtiği adada yaşayan dinozorları adadan çıkarmanın bir yolunu bulmaktır. Claire, bu tehlikeli ve zor görevi yerine getirebilmek için de dinozorlara karşı baskınlığını kanıtlamış olan tanıdığı tek kişiden, Owen Grady’den yardım ister. İkilinin bir kurtarma görevi amacıyla gittikleri adada ise her şey sarpa saracaktır…

Jurassic World: Yıkılmış Krallık (2018) (Jurassic World: Fallen Kingdom) | tt4881806 Filmi Imdb'den 280,000 kişi tarafından oylandı ve 6,2 puan aldı. Bu film için editör puanı %77 olarak belirlendi. İyi Seyirler!

Teknik Detaylar

Kod :
General
Unique ID                                : 277237250005041624266662154418225086283 (0xD091F3BFFFD734A27D7BE97DC9AAFF4B)
Complete name                            : /home/BroserBros/Desktop/4/Jurassic.World.Yıkılmış.Krallık.2018.3D.HSBS.BluRay.x264.TR.ENG.Filmbol.mkv
Format                                   : Matroska
Format version                           : Version 4
File size                                : 2.35 GiB
Duration                                 : 2 h 8 min
Overall bit rate                         : 2 627 kb/s
Movie name                               : Jurassic World: Yıkılmış Krallık - Jurassic World: Fallen Kingdom - 2018 | Filmbol.org
Encoded date                             : UTC 2021-05-14 13:49:25
Writing application                      : mkvmerge v53.0.0 ('Fool's Gold') 64-bit
Writing library                          : libebml v1.4.1 + libmatroska v1.6.2

Video
ID                                       : 1
Format                                   : AVC
Format/Info                              : Advanced Video Codec
Format profile                           : [email protected]
Format settings                          : CABAC / 4 Ref Frames
Format settings, CABAC                   : Yes
Format settings, Reference frames        : 4 frames
Codec ID                                 : V_MPEG4/ISO/AVC
Duration                                 : 2 h 8 min
Bit rate                                 : 2 150 kb/s
Width                                    : 1 920 pixels
Height                                   : 800 pixels
Display aspect ratio                     : 2.40:1
Frame rate mode                          : Constant
Frame rate                               : 23.976 (24000/1001) FPS
Color space                              : YUV
Chroma subsampling                       : 4:2:0
Bit depth                                : 8 bits
Scan type                                : Progressive
Bits/(Pixel*Frame)                       : 0.058
Stream size                              : 1.93 GiB (82%)
Title                                    : 3D - Filmbol.org
Writing library                          : x264 core 155
Encoding settings                        : cabac=1 / ref=4 / deblock=1:-1:-1 / analyse=0x3:0x133 / me=umh / subme=9 / psy=1 / psy_rd=1.00:0.15 / mixed_ref=1 / me_range=24 / chroma_me=1 / trellis=2 / 8x8dct=1 / cqm=0 / deadzone=21,11 / fast_pskip=0 / chroma_qp_offset=-3 / threads=18 / lookahead_threads=1 / sliced_threads=0 / nr=0 / decimate=1 / interlaced=0 / bluray_compat=0 / constrained_intra=0 / bframes=3 / b_pyramid=2 / b_adapt=2 / b_bias=0 / direct=3 / weightb=1 / open_gop=0 / weightp=2 / keyint=250 / keyint_min=23 / scenecut=40 / intra_refresh=0 / rc_lookahead=60 / rc=2pass / mbtree=1 / bitrate=2150 / ratetol=1.0 / qcomp=0.60 / qpmin=0 / qpmax=69 / qpstep=4 / cplxblur=20.0 / qblur=0.5 / vbv_maxrate=31250 / vbv_bufsize=31250 / nal_hrd=none / filler=0 / ip_ratio=1.40 / aq=1:1.00
Default                                  : Yes
Forced                                   : No

Audio #1
ID                                       : 2
Format                                   : AC-3
Format/Info                              : Audio Coding 3
Commercial name                          : Dolby Digital
Codec ID                                 : A_AC3
Duration                                 : 2 h 8 min
Bit rate mode                            : Constant
Bit rate                                 : 320 kb/s
Channel(s)                               : 2 channels
Channel layout                           : L R
Sampling rate                            : 44.1 kHz
Frame rate                               : 28.711 FPS (1536 SPF)
Compression mode                         : Lossy
Stream size                              : 294 MiB (12%)
Title                                    : Türkçe - Filmbol.org
Language                                 : Turkish
Service kind                             : Complete Main
Default                                  : Yes
Forced                                   : Yes

Audio #2
ID                                       : 3
Format                                   : AAC LC
Format/Info                              : Advanced Audio Codec Low Complexity
Codec ID                                 : A_AAC-2
Duration                                 : 2 h 8 min
Bit rate                                 : 147 kb/s
Channel(s)                               : 2 channels
Channel layout                           : L R
Sampling rate                            : 48.0 kHz
Frame rate                               : 46.875 FPS (1024 SPF)
Compression mode                         : Lossy
Stream size                              : 135 MiB (6%)
Title                                    : Orjinal Dil - Filmbol.org
Language                                 : English
Default                                  : No
Forced                                   : No

Text #1
ID                                       : 4
Format                                   : PGS
Muxing mode                              : zlib
Codec ID                                 : S_HDMV/PGS
Codec ID/Info                            : Picture based subtitle format used on BDs/HD-DVDs
Duration                                 : 2 h 6 min
Bit rate                                 : 806 b/s
Count of elements                        : 80
Stream size                              : 747 KiB (0%)
Title                                    : Türkçe Forced - Filmbol.org
Language                                 : Turkish
Default                                  : Yes
Forced                                   : Yes

Text #2
ID                                       : 5
Format                                   : PGS
Muxing mode                              : zlib
Codec ID                                 : S_HDMV/PGS
Codec ID/Info                            : Picture based subtitle format used on BDs/HD-DVDs
Duration                                 : 2 h 6 min
Bit rate                                 : 24.9 kb/s
Count of elements                        : 2564
Stream size                              : 22.5 MiB (1%)
Title                                    : Türkçe - Filmbol.org
Language                                 : Turkish
Default                                  : No
Forced                                   : No

Film Detayları


 Jurassic World: Yıkılmış Krallık

 Jurassic World: Yıkılmış Krallık

 Jurassic World: Yıkılmış Krallık


Film Fragmanı


Film İndir


Rar Şifresi: filmbol.org


Uptobox ile indir

1Fichier ile indir

1Fichier'den İndiremiyor musun? Tıklayın!












Şuan Offine!
Rapor Et!
Şuan Offine!
bbalta Üye
*
Üye
  • Konular0
  • Mesajlar5
  • Rep puanı 0
serinin son filmi, güzel
Şuan Offine!
Rapor Et!
Şuan Offine!
Polatemirhan Süper Üye
***
Super Üye
  • Konular0
  • Mesajlar26
  • Rep puanı 0
teşekkürler
Şuan Offine!
Rapor Et!
Şuan Offine!
OgiHan Üye
*
Üye
  • Konular0
  • Mesajlar1
  • Rep puanı 0
mükemmel film
Şuan Offine!
Rapor Et!
Şuan Offine!
HerqeLe Üye
*
Üye
  • Konular0
  • Mesajlar2
  • Rep puanı 0
Big Grin       SİTEDE TOPLASAN 20-25 FİLM VAR


Angry        DÜNYADA 2000-2500 .......!!!!  YÖNETİM İLGİLENMİYECEKSE BANA YETKİ VER FİLME BOĞAYIM BURAYI  ... Big Grin Big Grin
Şuan Offine!
Rapor Et!
Şuan Offine!
Zirox Üye
*
Üye
  • Konular0
  • Mesajlar1
  • Rep puanı 0
güzel film
Şuan Offine!
Rapor Et!
Şuan Offine!
ycanb Uzman Üye
**
Uzman Üye
  • Konular0
  • Mesajlar7
  • Rep puanı 0
teşekkürler film için
Şuan Offine!
Rapor Et!
Şuan Offine!
Ensartre Üye
*
Üye
  • Konular0
  • Mesajlar4
  • Rep puanı 0
izleyiverin gari
Şuan Offine!
Rapor Et!
Şuan Offine!
roj49 Üye
*
Üye
  • Konular0
  • Mesajlar4
  • Rep puanı 0
Güzel film
Şuan Offine!
Rapor Et!
Şuan Offine!
rockrock Üye
*
Üye
  • Konular0
  • Mesajlar2
  • Rep puanı 0
. teşekkürler

teşekkürler

, teşekkürler


Hızlı Menü: