⤤ Premium'a Yükselt
Filmbol Forum Film İndir BRRip XviD v Jurassic World: Yıkılmış Krallık (Jurassic World: Fallen Kingdom) - 2018 - TR - BRRip XviD | tt4881806

Filmbol TV kullanıma açıldı. Bu adresten giriş yapabilirsin: Giriş





Jurassic World: Yıkılmış Krallık (Jurassic World: Fallen Kingdom) - 2018 - TR - BRRip XviD | tt4881806
BroserBros
Jurassic World: Yıkılmış Krallık (Jurassic World: Fallen Kingdom) - 2018 - TR - BRRip XviD | tt4881806
3
634
  • Derecelendirme: 0/5 - 0 oy
  • 1
  • 2
  • 3
  • 4
  • 5
Konuyu Okuyanlar:1 Ziyaretçi
Şuan Online!
Filmin Yayınlanma Tarihi: 2018 
WWW
Rapor Et!
Şuan Online!
BroserBros Kurucu Admin
*******
Admin



 Jurassic World: Yıkılmış Krallık



İlk filmde yaşanan facianın ardından, Claire’in parkı yönetirken birer market ürünü gibi gördüğü dinozorlara olan bakış açısı değişir ve “Dinozor Koruma Grubu” isimli bir organizasyon kurar. Amacı; aktif bir yanardağın harekete geçtiği adada yaşayan dinozorları adadan çıkarmanın bir yolunu bulmaktır. Claire, bu tehlikeli ve zor görevi yerine getirebilmek için de dinozorlara karşı baskınlığını kanıtlamış olan tanıdığı tek kişiden, Owen Grady’den yardım ister. İkilinin bir kurtarma görevi amacıyla gittikleri adada ise her şey sarpa saracaktır…

Jurassic World: Yıkılmış Krallık (2018) (Jurassic World: Fallen Kingdom) | tt4881806 Filmi Imdb'den 280,000 kişi tarafından oylandı ve 6,2 puan aldı. Bu film için editör puanı %77 olarak belirlendi. İyi Seyirler!

Teknik Detaylar

Kod :
General
Unique ID                                : 284392830910461840132074640137960592062 (0xD5F411207C7D72BA104BADAB46B092BE)
Complete name                            : /home/BroserBros/Desktop/4/Jurassic.World.Yıkılmış.Krallık.2018.BRRip.XviD.TR.Filmbol.avi
Format                                   : Matroska
Format version                           : Version 4
File size                                : 1.55 GiB
Duration                                 : 2 h 8 min
Overall bit rate                         : 1 728 kb/s
Movie name                               : Jurassic World: Yıkılmış Krallık - Jurassic World: Fallen Kingdom - 2018 | Filmbol.org
Encoded date                             : UTC 2021-05-14 13:59:38
Writing application                      : mkvmerge v53.0.0 ('Fool's Gold') 64-bit
Writing library                          : libebml v1.4.1 + libmatroska v1.6.2
FileExtension_Invalid                    : mkv mk3d mka mks

Video
ID                                       : 1
Format                                   : MPEG-4 Visual
Format profile                           : [email protected]
Format settings, BVOP                    : No
Format settings, QPel                    : No
Format settings, GMC                     : No warppoints
Format settings, Matrix                  : Default (H.263)
Codec ID                                 : V_MS/VFW/FOURCC / XVID
Codec ID/Hint                            : XviD
Duration                                 : 2 h 8 min
Bit rate                                 : 1 598 kb/s
Width                                    : 720 pixels
Height                                   : 302 pixels
Display aspect ratio                     : 2.40:1
Original display aspect ratio            : 2.40:1
Frame rate mode                          : Constant
Frame rate                               : 23.976 FPS
Color space                              : YUV
Chroma subsampling                       : 4:2:0
Bit depth                                : 8 bits
Scan type                                : Progressive
Compression mode                         : Lossy
Bits/(Pixel*Frame)                       : 0.307
Stream size                              : 1.43 GiB (92%)
Title                                    : Jurassic World: Yıkılmış Krallık - Jurassic World: Fallen Kingdom - 2018 | Filmbol.org
Writing library                          : Lavc58.18.100
Default                                  : Yes
Forced                                   : No

Audio
ID                                       : 2
Format                                   : MPEG Audio
Format version                           : Version 1
Format profile                           : Layer 3
Format settings                          : Joint stereo / MS Stereo
Codec ID                                 : A_MPEG/L3
Codec ID/Hint                            : MP3
Duration                                 : 2 h 8 min
Bit rate mode                            : Constant
Bit rate                                 : 128 kb/s
Channel(s)                               : 2 channels
Sampling rate                            : 48.0 kHz
Frame rate                               : 41.667 FPS (1152 SPF)
Compression mode                         : Lossy
Stream size                              : 117 MiB (7%)
Title                                    : Jurassic World: Yıkılmış Krallık - Jurassic World: Fallen Kingdom - 2018 | Filmbol.org
Default                                  : Yes
Forced                                   : No

Film Detayları


 Jurassic World: Yıkılmış Krallık

 Jurassic World: Yıkılmış Krallık

 Jurassic World: Yıkılmış Krallık


Film Fragmanı


Film İndir


Rar Şifresi: filmbol.org



Uptobox ile indir

1Fichier ile indir

1Fichier'den İndiremiyor musun? Tıklayın!












Şuan Offine!
Rapor Et!
Şuan Offine!
trend123 Üye
*
Üye
  • Konular0
  • Mesajlar5
  • Rep puanı 0
güzel film Cool
Şuan Offine!
Rapor Et!
Şuan Offine!
Furkan61 Cezalı Üye
  • Konular0
  • Mesajlar288
güzel
Şuan Online!
Rapor Et!
Şuan Online!
BroserBros Kurucu Admin
*******
Admin
15.05.2021 Yönetici Notu:

Kırık linkler kontrol edildi, kaldırıldı ve yenilendi. Tüm linkler tamamen çalışır durumda.


Hızlı Menü: