⤤ Premium'a Yükselt

Merhaba, Ziyaretçi. Mega linklerinin bir kısmı deaktif halde ve yenileme çalışmalarına başladık. Bu süre içinde ikinci duyuruya kadar mega linklerini raporlamayın!! x

Filmbol Forum Film İndir 720P v Kadavra (The Possession of Hannah Grace) - 2018 - TR+ORG - 720P | tt5734576

Filmbol TV kullanıma açıldı. Bu adresten giriş yapabilirsin: Giriş





Kadavra (The Possession of Hannah Grace) - 2018 - TR+ORG - 720P | tt5734576
BroserBros
Kadavra (The Possession of Hannah Grace) - 2018 - TR+ORG - 720P | tt5734576
6
1134
  • Derecelendirme: 0/5 - 0 oy
  • 1
  • 2
  • 3
  • 4
  • 5
Konuyu Okuyanlar:3 Ziyaretçi
Şuan Online!
Filmin Yayınlanma Tarihi: 2018 
WWW
Rapor Et!
Şuan Online!
BroserBros Kurucu Admin
*******
Admin



 Kadavra



Genç bir kadın olan Megan Reed, eski bir polistir. Çok sevdiği mesleğini ardında bırakmış olmasının sebebi ise geçmişte mücadele etmek zorunda kaldığı ağır madde bağımlılığıdır. Rehabilitasyona giren ve aylarca sarfedilen emeğin ardından kendini toparlamayı başaran Megan, artık bağımlılığından kurtulduğu hastanenin geceyarısı vardiyasında bekçi olarak çalışmaktadır. Megan işe başladıktan bir süre sonra hastane morguna vahşice öldürülmüş bir kadın cesedi getirilir. Bu ceset bie şeytan çıkarma ayininde hayatını kaybeden Hannah Grace’e aittir. Cesedin gelişiyle birlikte garip ve ürpertici deneyimler yaşamaya başlayan Megan, parçalanmış olan bedenin acımasız bir şeytani güç tarafından ele geçirilmiş olabileceğinden şüphelenmeye başlar. Kilit altındaki binada tek başına olan genç kadın, hayatta kalabilmek için tüm gücünü kullanmak zorundadır…

Kadavra (2018) (The Possession of Hannah Grace) | tt5734576 Filmi Imdb'den 21,000 kişi tarafından oylandı ve 5,2 puan aldı. Bu film için editör puanı %59 olarak belirlendi. İyi Seyirler!

Teknik Detaylar

Kod :
General
Unique ID                                : 34476793567450775936121595909205323302 (0x19EFFD2952E4379404EEB3A9E452EE26)
Complete name                            : /home/BroserBros/Desktop/5/Kadavra.2018.720p.BluRay.x264.TR.ENG.Filmbol.mkv
Format                                   : Matroska
Format version                           : Version 4
File size                                : 881 MiB
Duration                                 : 1 h 25 min
Overall bit rate                         : 1 436 kb/s
Movie name                               : Kadavra - The Possession of Hannah Grace - 2018 | Filmbol.org
Encoded date                             : UTC 2021-06-07 15:51:28
Writing application                      : mkvmerge v53.0.0 ('Fool's Gold') 64-bit
Writing library                          : libebml v1.4.1 + libmatroska v1.6.2

Video
ID                                       : 1
Format                                   : AVC
Format/Info                              : Advanced Video Codec
Format profile                           : [email protected]
Format settings                          : CABAC / 4 Ref Frames
Format settings, CABAC                   : Yes
Format settings, Reference frames        : 4 frames
Codec ID                                 : V_MPEG4/ISO/AVC
Duration                                 : 1 h 25 min
Bit rate                                 : 1 050 kb/s
Width                                    : 1 280 pixels
Height                                   : 534 pixels
Display aspect ratio                     : 2.40:1
Original display aspect ratio            : 2.40:1
Frame rate mode                          : Constant
Frame rate                               : 23.976 (24000/1001) FPS
Color space                              : YUV
Chroma subsampling                       : 4:2:0
Bit depth                                : 8 bits
Scan type                                : Progressive
Bits/(Pixel*Frame)                       : 0.064
Stream size                              : 644 MiB (73%)
Title                                    : 720P - Filmbol.org
Writing library                          : x264 core 152
Encoding settings                        : cabac=1 / ref=4 / deblock=1:-1:-1 / analyse=0x3:0x133 / me=umh / subme=9 / psy=1 / psy_rd=1.00:0.15 / mixed_ref=1 / me_range=24 / chroma_me=1 / trellis=2 / 8x8dct=1 / cqm=0 / deadzone=21,11 / fast_pskip=0 / chroma_qp_offset=-3 / threads=12 / lookahead_threads=1 / sliced_threads=0 / nr=0 / decimate=1 / interlaced=0 / bluray_compat=0 / constrained_intra=0 / bframes=3 / b_pyramid=2 / b_adapt=2 / b_bias=0 / direct=3 / weightb=1 / open_gop=0 / weightp=2 / keyint=250 / keyint_min=23 / scenecut=40 / intra_refresh=0 / rc_lookahead=60 / rc=2pass / mbtree=1 / bitrate=1050 / ratetol=1.0 / qcomp=0.60 / qpmin=0 / qpmax=69 / qpstep=4 / cplxblur=20.0 / qblur=0.5 / vbv_maxrate=31250 / vbv_bufsize=31250 / nal_hrd=none / filler=0 / ip_ratio=1.40 / aq=1:1.00
Default                                  : Yes
Forced                                   : No

Audio #1
ID                                       : 2
Format                                   : AC-3
Format/Info                              : Audio Coding 3
Commercial name                          : Dolby Digital
Codec ID                                 : A_AC3
Duration                                 : 1 h 25 min
Bit rate mode                            : Constant
Bit rate                                 : 192 kb/s
Channel(s)                               : 2 channels
Channel layout                           : L R
Sampling rate                            : 48.0 kHz
Frame rate                               : 31.250 FPS (1536 SPF)
Compression mode                         : Lossy
Stream size                              : 118 MiB (13%)
Title                                    : Türkçe - Filmbol.org
Language                                 : Turkish
Service kind                             : Complete Main
Default                                  : Yes
Forced                                   : No

Audio #2
ID                                       : 3
Format                                   : AC-3
Format/Info                              : Audio Coding 3
Commercial name                          : Dolby Digital
Codec ID                                 : A_AC3
Duration                                 : 1 h 25 min
Bit rate mode                            : Constant
Bit rate                                 : 192 kb/s
Channel(s)                               : 2 channels
Channel layout                           : L R
Sampling rate                            : 48.0 kHz
Frame rate                               : 31.250 FPS (1536 SPF)
Compression mode                         : Lossy
Stream size                              : 118 MiB (13%)
Title                                    : Orijinal Dil - Filmbol.org
Language                                 : English
Service kind                             : Complete Main
Default                                  : No
Forced                                   : No

Text
ID                                       : 4
Format                                   : UTF-8
Codec ID                                 : S_TEXT/UTF8
Codec ID/Info                            : UTF-8 Plain Text
Duration                                 : 1 h 20 min
Bit rate                                 : 31 b/s
Count of elements                        : 628
Stream size                              : 18.9 KiB (0%)
Title                                    : Türkçe - Filmbol.org
Language                                 : Turkish
Default                                  : No
Forced                                   : No

Film Detayları


 Kadavra

 Kadavra

 Kadavra


Film Fragmanı


Film İndir


Rar Şifresi: filmbol.org


Uptobox ile indir

1Fichier ile indir

1Fichier'den İndiremiyor musun? Tıklayın!












Şuan Offine!
Rapor Et!
Şuan Offine!
gokenci43 Cezalı Üye
  • Konular0
  • Mesajlar16
çok gzl bir film
Şuan Offine!
Rapor Et!
Şuan Offine!
Hturk5690 Üye
*
Üye
  • Konular0
  • Mesajlar2
  • Rep puanı 0
ilginç bir filme benziyor
Şuan Online!
Rapor Et!
Şuan Online!
BroserBros Kurucu Admin
*******
Admin
08.06.2021 Yönetici Notu:

Kırık linkler kontrol edildi, kaldırıldı ve yenilendi. Tüm linkler tamamen çalışır durumda.
Şuan Offine!
Rapor Et!
Şuan Offine!
tamiasboi Üye
*
Üye
  • Konular0
  • Mesajlar71
  • Rep puanı 0
Teşekkürler
Şuan Offine!
Rapor Et!
Şuan Offine!
Arman614182 Üye
*
Üye
  • Konular0
  • Mesajlar1
  • Rep puanı 0
Teşekkürler.
Şuan Offine!
Rapor Et!
Şuan Offine!
volkanreal32 Üye
*
Üye
  • Konular0
  • Mesajlar1
  • Rep puanı 0
Teşekkürler.


Hızlı Menü: