Filmbol Forum Film İndir BRRip XviD v Kadavra (The Possession of Hannah Grace) - 2018 - TR - BRRip XviD | tt5734576 Premium Üyelik AlPremium Üyelik Al

Kadavra (The Possession of Hannah Grace) - 2018 - TR - BRRip XviD | tt5734576
BroserBros
Kadavra (The Possession of Hannah Grace) - 2018 - TR - BRRip XviD | tt5734576
2
651
  • Derecelendirme: 0/5 - 0 oy
  • 1
  • 2
  • 3
  • 4
  • 5
Konuyu Okuyanlar:2 Ziyaretçi
Şuan Online!
Filmin Yayınlanma Tarihi: 2018 
Şuan Online!
BroserBros Kurucu Admin
*******
Admin


 Kadavra



Genç bir kadın olan Megan Reed, eski bir polistir. Çok sevdiği mesleğini ardında bırakmış olmasının sebebi ise geçmişte mücadele etmek zorunda kaldığı ağır madde bağımlılığıdır. Rehabilitasyona giren ve aylarca sarfedilen emeğin ardından kendini toparlamayı başaran Megan, artık bağımlılığından kurtulduğu hastanenin geceyarısı vardiyasında bekçi olarak çalışmaktadır. Megan işe başladıktan bir süre sonra hastane morguna vahşice öldürülmüş bir kadın cesedi getirilir. Bu ceset bie şeytan çıkarma ayininde hayatını kaybeden Hannah Grace’e aittir. Cesedin gelişiyle birlikte garip ve ürpertici deneyimler yaşamaya başlayan Megan, parçalanmış olan bedenin acımasız bir şeytani güç tarafından ele geçirilmiş olabileceğinden şüphelenmeye başlar. Kilit altındaki binada tek başına olan genç kadın, hayatta kalabilmek için tüm gücünü kullanmak zorundadır…

Kadavra (2018) (The Possession of Hannah Grace) | tt5734576 Filmi Imdb'den 21,000 kişi tarafından oylandı ve 5,2 puan aldı. Bu film için editör puanı %59 olarak belirlendi. İyi Seyirler!

Teknik Detaylar

Kod :
General
Unique ID                                : 85202161035067636670119118774590621188 (0x401956DE1834F444B5A984B53DC5C604)
Complete name                            : /home/BroserBros/Desktop/5/Kadavra.2018.BRRip.XviD.TR.Filmbol.avi
Format                                   : Matroska
Format version                           : Version 4
File size                                : 1.12 GiB
Duration                                 : 1 h 25 min
Overall bit rate                         : 1 862 kb/s
Movie name                               : Kadavra - The Possession of Hannah Grace - 2018 | Filmbol.org
Encoded date                             : UTC 2021-06-07 15:59:25
Writing application                      : mkvmerge v53.0.0 ('Fool's Gold') 64-bit
Writing library                          : libebml v1.4.1 + libmatroska v1.6.2
FileExtension_Invalid                    : mkv mk3d mka mks

Video
ID                                       : 1
Format                                   : MPEG-4 Visual
Format profile                           : Advanced [email protected]
Format settings                          : BVOP2 / Custom Matrix
Format settings, BVOP                    : 2
Format settings, QPel                    : No
Format settings, GMC                     : No warppoints
Format settings, Matrix                  : Custom
Muxing mode                              : Packed bitstream
Codec ID                                 : V_MS/VFW/FOURCC / XVID
Codec ID/Hint                            : XviD
Duration                                 : 1 h 25 min
Bit rate                                 : 1 733 kb/s
Width                                    : 720 pixels
Height                                   : 304 pixels
Display aspect ratio                     : 2.35:1
Frame rate mode                          : Constant
Frame rate                               : 23.976 (24000/1001) FPS
Color space                              : YUV
Chroma subsampling                       : 4:2:0
Bit depth                                : 8 bits
Scan type                                : Progressive
Compression mode                         : Lossy
Bits/(Pixel*Frame)                       : 0.330
Stream size                              : 1.04 GiB (93%)
Title                                    : Kadavra - The Possession of Hannah Grace - 2018 | Filmbol.org
Writing library                          : XviD 1.2.1 (UTC 2008-12-04)
Default                                  : Yes
Forced                                   : No

Audio
ID                                       : 2
Format                                   : MPEG Audio
Format version                           : Version 1
Format profile                           : Layer 3
Format settings                          : Joint stereo / MS Stereo
Codec ID                                 : A_MPEG/L3
Codec ID/Hint                            : MP3
Duration                                 : 1 h 25 min
Bit rate mode                            : Constant
Bit rate                                 : 128 kb/s
Channel(s)                               : 2 channels
Sampling rate                            : 48.0 kHz
Frame rate                               : 41.667 FPS (1152 SPF)
Compression mode                         : Lossy
Stream size                              : 78.5 MiB (7%)
Title                                    : Kadavra - The Possession of Hannah Grace - 2018 | Filmbol.org
Writing library                          : LAME3.98.4
Default                                  : Yes
Forced                                   : No

Film Detayları


 Kadavra

 Kadavra

 Kadavra


Film Fragmanı


Film İndir



Zip Şifresi: filmbol.org Aşağıdaki butona tıklayarak kopyalabilirsiniz.



Uptobox ile indir

1Fichier ile indir

1Fichier'den İndiremiyor musun? Tıklayın!






Filmbol Cloud

Bunun için üzgünüz ancak, bu linke sadece premium üyeler erişebilir.







WWW
Şuan Offine!
Şuan Offine!
Ali3838 Yeni Üye
*
Üye
  • Konular0
  • Mesajlar5
  • Rep puanı 0
Emeğine sağlık üstad
Şuan Online!
Şuan Online!
BroserBros Kurucu Admin
*******
Admin
08.06.2021 Yönetici Notu:

Kırık linkler kontrol edildi, kaldırıldı ve yenilendi. Tüm linkler tamamen çalışır durumda.


Hızlı Menü: