⤤ Premium'a Yükselt
Filmbol Forum Film İndir 1080P v Gökdelen (Skyscraper) - 2018 - TR+ORG - 1080P | tt5758778

Filmbol TV kullanıma açıldı. Bu adresten giriş yapabilirsin: Giriş





Gökdelen (Skyscraper) - 2018 - TR+ORG - 1080P | tt5758778
BroserBros
Gökdelen (Skyscraper) - 2018 - TR+ORG - 1080P | tt5758778
7
1107
  • Derecelendirme: 0/5 - 0 oy
  • 1
  • 2
  • 3
  • 4
  • 5
Konuyu Okuyanlar:2 Ziyaretçi
Şuan Online!
Filmin Yayınlanma Tarihi: 2018 
WWW
Rapor Et!
Şuan Online!
BroserBros Kurucu Admin
*******
Admin



 Gökdelen



Will Sawyer, eski bir FBI Rehine Kurtarma Ekibi lideridir. Fakat artık gökdelenlerin güvenliğini değerlendirmektedir. Çin’deki görevi sırasında dünyanın en uzun ve en güvenli binası ateşler içinde kalınca tüm suç onun üzerine atılır. Bu olay üzerine artık aranan bir adam olan Will, yangının sorumlularını bularak adını temizlemeli ve binanın içinde sıkışıp kalmış olan ailesini ateş hattından kurtarmalıdır.

Gökdelen (2018) (Skyscraper) | tt5758778 Filmi Imdb'den 110,000 kişi tarafından oylandı ve 5,8 puan aldı. Bu film için editör puanı %60 olarak belirlendi. İyi Seyirler!

Teknik Detaylar

Kod :
General
Unique ID                                : 108105697401452115117281739048361671198 (0x51546664FC8D69A9B38167C467883A1E)
Complete name                            : /home/BroserBros/Desktop/6/Gökdelen.2018.1080p.BluRay.x264.TR.ENG.Filmbol.mkv
Format                                   : Matroska
Format version                           : Version 4
File size                                : 2.10 GiB
Duration                                 : 1 h 42 min
Overall bit rate                         : 2 937 kb/s
Movie name                               : Gökdelen - Skyscraper - 2018 | Filmbol.org
Encoded date                             : UTC 2021-04-29 11:41:12
Writing application                      : mkvmerge v53.0.0 ('Fool's Gold') 64-bit
Writing library                          : libebml v1.4.1 + libmatroska v1.6.2

Video
ID                                       : 1
Format                                   : AVC
Format/Info                              : Advanced Video Codec
Format profile                           : [email protected]
Format settings                          : CABAC / 4 Ref Frames
Format settings, CABAC                   : Yes
Format settings, Reference frames        : 4 frames
Codec ID                                 : V_MPEG4/ISO/AVC
Duration                                 : 1 h 42 min
Bit rate                                 : 2 150 kb/s
Width                                    : 1 920 pixels
Height                                   : 800 pixels
Display aspect ratio                     : 2.40:1
Frame rate mode                          : Constant
Frame rate                               : 23.976 (24000/1001) FPS
Color space                              : YUV
Chroma subsampling                       : 4:2:0
Bit depth                                : 8 bits
Scan type                                : Progressive
Bits/(Pixel*Frame)                       : 0.058
Stream size                              : 1.54 GiB (73%)
Title                                    : 1080P - Filmbol.org
Writing library                          : x264 core 155
Encoding settings                        : cabac=1 / ref=4 / deblock=1:-1:-1 / analyse=0x3:0x133 / me=umh / subme=9 / psy=1 / psy_rd=1.00:0.15 / mixed_ref=1 / me_range=24 / chroma_me=1 / trellis=2 / 8x8dct=1 / cqm=0 / deadzone=21,11 / fast_pskip=0 / chroma_qp_offset=-3 / threads=18 / lookahead_threads=1 / sliced_threads=0 / nr=0 / decimate=1 / interlaced=0 / bluray_compat=0 / constrained_intra=0 / bframes=3 / b_pyramid=2 / b_adapt=2 / b_bias=0 / direct=3 / weightb=1 / open_gop=0 / weightp=2 / keyint=250 / keyint_min=23 / scenecut=40 / intra_refresh=0 / rc_lookahead=60 / rc=2pass / mbtree=1 / bitrate=2150 / ratetol=1.0 / qcomp=0.60 / qpmin=0 / qpmax=69 / qpstep=4 / cplxblur=20.0 / qblur=0.5 / vbv_maxrate=31250 / vbv_bufsize=31250 / nal_hrd=none / filler=0 / ip_ratio=1.40 / aq=1:1.00
Default                                  : Yes
Forced                                   : No

Audio #1
ID                                       : 2
Format                                   : E-AC-3
Format/Info                              : Enhanced AC-3
Commercial name                          : Dolby Digital Plus
Codec ID                                 : A_EAC3
Duration                                 : 1 h 42 min
Bit rate mode                            : Constant
Bit rate                                 : 640 kb/s
Channel(s)                               : 6 channels
Channel layout                           : L R C LFE Ls Rs
Sampling rate                            : 48.0 kHz
Frame rate                               : 31.250 FPS (1536 SPF)
Compression mode                         : Lossy
Stream size                              : 469 MiB (22%)
Title                                    : Türkçe - Filmbol.org
Language                                 : Turkish
Service kind                             : Complete Main
Default                                  : Yes
Forced                                   : Yes

Audio #2
ID                                       : 3
Format                                   : AAC LC
Format/Info                              : Advanced Audio Codec Low Complexity
Codec ID                                 : A_AAC-2
Duration                                 : 1 h 42 min
Bit rate                                 : 144 kb/s
Channel(s)                               : 2 channels
Channel layout                           : L R
Sampling rate                            : 48.0 kHz
Frame rate                               : 46.875 FPS (1024 SPF)
Compression mode                         : Lossy
Stream size                              : 106 MiB (5%)
Title                                    : Orjinal Dil - Filmbol.org
Language                                 : English
Default                                  : No
Forced                                   : No

Text #1
ID                                       : 4
Format                                   : UTF-8
Codec ID                                 : S_TEXT/UTF8
Codec ID/Info                            : UTF-8 Plain Text
Duration                                 : 1 h 33 min
Bit rate                                 : 4 b/s
Count of elements                        : 118
Stream size                              : 3.28 KiB (0%)
Title                                    : Türkçe Forced - Filmbol.org
Language                                 : Turkish
Default                                  : Yes
Forced                                   : Yes

Text #2
ID                                       : 5
Format                                   : UTF-8
Codec ID                                 : S_TEXT/UTF8
Codec ID/Info                            : UTF-8 Plain Text
Duration                                 : 1 h 33 min
Bit rate                                 : 45 b/s
Count of elements                        : 1147
Stream size                              : 31.2 KiB (0%)
Title                                    : Türkçe - Filmbol.org
Language                                 : Turkish
Default                                  : No
Forced                                   : No

Film Detayları


 Gökdelen

 Gökdelen

 Gökdelen


Film Fragmanı


Film İndir


Rar Şifresi: filmbol.org


Uptobox ile indir

1Fichier ile indir

1Fichier'den İndiremiyor musun? Tıklayın!












Şuan Offine!
Rapor Et!
Şuan Offine!
alpozgenoglu Uzman Üye
**
Uzman Üye
  • Konular0
  • Mesajlar7
  • Rep puanı 0
afasfd

afafs
Şuan Offine!
Rapor Et!
Şuan Offine!
aguero4245 Uzman Üye
**
Uzman Üye
  • Konular0
  • Mesajlar15
  • Rep puanı 0
Vaocvccc
Şuan Offine!
Rapor Et!
Şuan Offine!
enessamil Üye
*
Üye
  • Konular0
  • Mesajlar1
  • Rep puanı 0
yıufıugjdwq
Heart Heart Heart Heart Heart Heart Heart Angel Angel Angel At At Tongue Rolleyes
Şuan Offine!
Rapor Et!
Şuan Offine!
rivengibi Üye
*
Üye
  • Konular0
  • Mesajlar3
  • Rep puanı 0
severim
Şuan Offine!
Rapor Et!
Şuan Offine!
kemal1985 Üye
*
Üye
  • Konular0
  • Mesajlar1
  • Rep puanı 0
Teşekkürler
Şuan Online!
Rapor Et!
Şuan Online!
BroserBros Kurucu Admin
*******
Admin
30.04.2021 Yönetici Notu:

Kırık linkler kontrol edildi, kaldırıldı ve yenilendi. Tüm linkler tamamen çalışır durumda.
Şuan Offine!
Rapor Et!
Şuan Offine!
suluaho Üye
*
Üye
  • Konular0
  • Mesajlar57
  • Rep puanı 0
Teşekkürler.


Hızlı Menü: