⤤ Premium'a Yükselt
Filmbol Forum Film İndir BRRip XviD v Gökdelen (Skyscraper) - 2018 - TR - BRRip XviD | tt5758778

Filmbol TV kullanıma açıldı. Bu adresten giriş yapabilirsin: Giriş





Gökdelen (Skyscraper) - 2018 - TR - BRRip XviD | tt5758778
BroserBros
Gökdelen (Skyscraper) - 2018 - TR - BRRip XviD | tt5758778
6
835
  • Derecelendirme: 0/5 - 0 oy
  • 1
  • 2
  • 3
  • 4
  • 5
Konuyu Okuyanlar:2 Ziyaretçi
Şuan Online!
Filmin Yayınlanma Tarihi: 2018 
WWW
Rapor Et!
Şuan Online!
BroserBros Kurucu Admin
*******
Admin



 Gökdelen



Will Sawyer, eski bir FBI Rehine Kurtarma Ekibi lideridir. Fakat artık gökdelenlerin güvenliğini değerlendirmektedir. Çin’deki görevi sırasında dünyanın en uzun ve en güvenli binası ateşler içinde kalınca tüm suç onun üzerine atılır. Bu olay üzerine artık aranan bir adam olan Will, yangının sorumlularını bularak adını temizlemeli ve binanın içinde sıkışıp kalmış olan ailesini ateş hattından kurtarmalıdır.

Gökdelen (2018) (Skyscraper) | tt5758778 Filmi Imdb'den 110,000 kişi tarafından oylandı ve 5,8 puan aldı. Bu film için editör puanı %60 olarak belirlendi. İyi Seyirler!

Teknik Detaylar

Kod :
General
Unique ID                                : 209046923048565407043084888894432020078 (0x9D44F90F3235F910CB22E312912B066E)
Complete name                            : /home/BroserBros/Desktop/6/Gökdelen.2018.BRRip.XviD.TR.Filmbol.avi
Format                                   : Matroska
Format version                           : Version 4
File size                                : 1.24 GiB
Duration                                 : 1 h 42 min
Overall bit rate                         : 1 729 kb/s
Movie name                               : Gökdelen - Skyscraper - 2018 | Filmbol.org
Encoded date                             : UTC 2021-04-29 11:53:00
Writing application                      : mkvmerge v53.0.0 ('Fool's Gold') 64-bit
Writing library                          : libebml v1.4.1 + libmatroska v1.6.2
FileExtension_Invalid                    : mkv mk3d mka mks

Video
ID                                       : 1
Format                                   : MPEG-4 Visual
Format profile                           : [email protected]
Format settings, BVOP                    : No
Format settings, QPel                    : No
Format settings, GMC                     : No warppoints
Format settings, Matrix                  : Default (H.263)
Codec ID                                 : V_MS/VFW/FOURCC / XVID
Codec ID/Hint                            : XviD
Duration                                 : 1 h 42 min
Bit rate                                 : 1 600 kb/s
Width                                    : 720 pixels
Height                                   : 302 pixels
Display aspect ratio                     : 2.40:1
Original display aspect ratio            : 2.40:1
Frame rate mode                          : Constant
Frame rate                               : 23.976 FPS
Color space                              : YUV
Chroma subsampling                       : 4:2:0
Bit depth                                : 8 bits
Scan type                                : Progressive
Compression mode                         : Lossy
Bits/(Pixel*Frame)                       : 0.307
Stream size                              : 1.14 GiB (92%)
Title                                    : Gökdelen - Skyscraper - 2018 | Filmbol.org
Writing library                          : Lavc58.18.100
Default                                  : Yes
Forced                                   : No

Audio
ID                                       : 2
Format                                   : MPEG Audio
Format version                           : Version 1
Format profile                           : Layer 3
Format settings                          : Joint stereo / MS Stereo
Codec ID                                 : A_MPEG/L3
Codec ID/Hint                            : MP3
Duration                                 : 1 h 42 min
Bit rate mode                            : Constant
Bit rate                                 : 128 kb/s
Channel(s)                               : 2 channels
Sampling rate                            : 48.0 kHz
Frame rate                               : 41.667 FPS (1152 SPF)
Compression mode                         : Lossy
Stream size                              : 93.7 MiB (7%)
Title                                    : Gökdelen - Skyscraper - 2018 | Filmbol.org
Default                                  : Yes
Forced                                   : No

Film Detayları


 Gökdelen

 Gökdelen

 Gökdelen


Film Fragmanı


Film İndir


Rar Şifresi: filmbol.org



Uptobox ile indir

1Fichier ile indir

1Fichier'den İndiremiyor musun? Tıklayın!












Şuan Offine!
Rapor Et!
Şuan Offine!
refresh23 Üye
*
Üye
  • Konular0
  • Mesajlar5
  • Rep puanı 0
güzel thanks
Şuan Offine!
Rapor Et!
Şuan Offine!
cemsav97 Süper Üye
***
Super Üye
  • Konular0
  • Mesajlar78
  • Rep puanı 2
güzelll
Şuan Offine!
Rapor Et!
Şuan Offine!
ercan Uzman Üye
**
Uzman Üye
  • Konular0
  • Mesajlar24
  • Rep puanı 0
tşk...
Şuan Offine!
Rapor Et!
Şuan Offine!
badboys755 Uzman Üye
**
Uzman Üye
  • Konular0
  • Mesajlar19
  • Rep puanı 0
sagol
Şuan Online!
Rapor Et!
Şuan Online!
BroserBros Kurucu Admin
*******
Admin
30.04.2021 Yönetici Notu:

Kırık linkler kontrol edildi, kaldırıldı ve yenilendi. Tüm linkler tamamen çalışır durumda.
Şuan Offine!
Rapor Et!
Şuan Offine!
Dawn_AS Üye
*
Üye
  • Konular0
  • Mesajlar22
  • Rep puanı 0
Teşekkürler.


Hızlı Menü: