⤤ Premium'a Yükselt
Filmbol Forum Film İndir BRRip XviD v Uzun Kâbus (Slender Man) - 2018 - TR - BRRip XviD | tt5690360

Filmbol TV kullanıma açıldı. Bu adresten giriş yapabilirsin: Giriş





Uzun Kâbus (Slender Man) - 2018 - TR - BRRip XviD | tt5690360
BroserBros
Uzun Kâbus (Slender Man) - 2018 - TR - BRRip XviD | tt5690360
3
1413
  • Derecelendirme: 0/5 - 0 oy
  • 1
  • 2
  • 3
  • 4
  • 5
Konuyu Okuyanlar:2 Ziyaretçi
Şuan Online!
Filmin Yayınlanma Tarihi: 2018 
WWW
Rapor Et!
Şuan Online!
BroserBros Kurucu Admin
*******
Admin



 Uzun Kâbus



İnce, uzun, yüzü olmayan, sürekli takım elbise giyen ve genellikle çocukları hedef alan doğaüstü karakter Slender Man’i odağına alan filmin yönetmen koltuğunda “Stomp the Yard”ın yönetmeni Sylvain White oturuyor. Oyuncu kadrosunda Joey King, Julia Goldani Telles, Annalise Basso, Jaz Sinclair, Javier Botet, Kevin Chapman, Alex Fitzalan gibi isimlerin yer aldığı filmin senaryosunu David Birke kaleme alıyor.

Uzun Kâbus (2018) (Slender Man) | tt5690360 Filmi Imdb'den 30,000 kişi tarafından oylandı ve 3,2 puan aldı. Bu film için editör puanı %42 olarak belirlendi. İyi Seyirler!

Teknik Detaylar

Kod :
General
Unique ID                                : 250148932894035702913358846791843929316 (0xBC30EE9A4926AAA7532AF5FA2E095CE4)
Complete name                            : /home/BroserBros/Desktop/4/Uzun.Kabus.2018.BRRip.XviD.TR.Filmbol.avi
Format                                   : Matroska
Format version                           : Version 4
File size                                : 624 MiB
Duration                                 : 1 h 33 min
Overall bit rate                         : 937 kb/s
Movie name                               : Uzun Kabus - Slender Man - 2018 | Filmbol.org
Encoded date                             : UTC 2021-04-05 18:28:22
Writing application                      : mkvmerge v53.0.0 ('Fool's Gold') 64-bit
Writing library                          : libebml v1.4.1 + libmatroska v1.6.2
FileExtension_Invalid                    : mkv mk3d mka mks

Video
ID                                       : 1
Format                                   : MPEG-4 Visual
Format profile                           : [email protected]
Format settings, BVOP                    : No
Format settings, QPel                    : No
Format settings, GMC                     : No warppoints
Format settings, Matrix                  : Default (H.263)
Codec ID                                 : V_MS/VFW/FOURCC / XVID
Codec ID/Hint                            : XviD
Duration                                 : 1 h 33 min
Bit rate                                 : 807 kb/s
Width                                    : 720 pixels
Height                                   : 302 pixels
Display aspect ratio                     : 2.40:1
Original display aspect ratio            : 2.40:1
Frame rate mode                          : Constant
Frame rate                               : 23.976 FPS
Color space                              : YUV
Chroma subsampling                       : 4:2:0
Bit depth                                : 8 bits
Scan type                                : Progressive
Compression mode                         : Lossy
Bits/(Pixel*Frame)                       : 0.155
Stream size                              : 538 MiB (86%)
Title                                    : Uzun Kabus - Slender Man - 2018 | Filmbol.org
Writing library                          : Lavc58.18.100
Default                                  : Yes
Forced                                   : No

Audio
ID                                       : 2
Format                                   : MPEG Audio
Format version                           : Version 1
Format profile                           : Layer 3
Format settings                          : Joint stereo / MS Stereo
Codec ID                                 : A_MPEG/L3
Codec ID/Hint                            : MP3
Duration                                 : 1 h 33 min
Bit rate mode                            : Constant
Bit rate                                 : 128 kb/s
Channel(s)                               : 2 channels
Sampling rate                            : 48.0 kHz
Frame rate                               : 41.667 FPS (1152 SPF)
Compression mode                         : Lossy
Stream size                              : 85.3 MiB (14%)
Title                                    : Uzun Kabus - Slender Man - 2018 | Filmbol.org
Default                                  : Yes
Forced                                   : No

Film Detayları


 Uzun Kâbus

 Uzun Kâbus

 Uzun Kâbus


Film Fragmanı


Film İndir


Rar Şifresi: filmbol.org



Uptobox ile indir

1Fichier ile indir

1Fichier'den İndiremiyor musun? Tıklayın!












Şuan Offine!
Rapor Et!
Şuan Offine!
Furkan61 Cezalı Üye
  • Konular0
  • Mesajlar288
güzel
Şuan Online!
Rapor Et!
Şuan Online!
BroserBros Kurucu Admin
*******
Admin
10.04.2021 Yönetici Notu:

Kırık linkler kontrol edildi, kaldırıldı ve yenilendi. Tüm linkler tamamen çalışır durumda. @Furkan61
Şuan Offine!
Rapor Et!
Şuan Offine!
Furkan61 Cezalı Üye
  • Konular0
  • Mesajlar288
(10-04-2021, Saat: 18:28)BroserBros Adlı Kullanıcıdan Alıntı: 10.04.2021 Yönetici Notu:

Kırık linkler kontrol edildi, kaldırıldı ve yenilendi. Tüm linkler tamamen çalışır durumda. @Furkan61
Teşekkürler BroserBros


Hızlı Menü: