Filmbol Forum Film İndir 1080P v Uzun Kâbus (Slender Man) - 2018 - TR+ORG - 1080P | tt5690360
Mega linklerinin şikayet edilmemesi için global erişime kapatıp sadece yorum yapanlara açıyoruz. Bu linkleri gizleme işlemini mecburen yapıyoruz ve yorum yapmanızın siteye değil size faydası vardır. Teşekürler yazmayı çok görüp, Random/Spam mesajlar atarak Mega linklerini açmaya çalışan kullanıcılara önce süresiz ban, devam ederse IP ban atacağız.
Filmbol'da moderatör olmak ister misiniz? Bizimle iletişime geçmek için tıklayın!
Uzun Kâbus (Slender Man) - 2018 - TR+ORG - 1080P | tt5690360
BroserBros
Uzun Kâbus (Slender Man) - 2018 - TR+ORG - 1080P | tt5690360
3
845
  • Derecelendirme: 0/5 - 0 oy
  • 1
  • 2
  • 3
  • 4
  • 5
Konuyu Okuyanlar:1 Ziyaretçi
Şuan Online!
Filmin Yayınlanma Tarihi: 2018 
WWW
Şuan Online!
BroserBros Kurucu Admin
*******
Admin



 Uzun Kâbus



İnce, uzun, yüzü olmayan, sürekli takım elbise giyen ve genellikle çocukları hedef alan doğaüstü karakter Slender Man’i odağına alan filmin yönetmen koltuğunda “Stomp the Yard”ın yönetmeni Sylvain White oturuyor. Oyuncu kadrosunda Joey King, Julia Goldani Telles, Annalise Basso, Jaz Sinclair, Javier Botet, Kevin Chapman, Alex Fitzalan gibi isimlerin yer aldığı filmin senaryosunu David Birke kaleme alıyor.

Uzun Kâbus (2018) (Slender Man) | tt5690360 Filmi Imdb'den 30,000 kişi tarafından oylandı ve 3,2 puan aldı. Bu film için editör puanı %42 olarak belirlendi. İyi Seyirler!

Teknik Detaylar

Kod :
General
Unique ID                                : 248911921546297880997273350028708604399 (0xBB42B13C0561D94836D645AC27F8E9EF)
Complete name                            : /home/BroserBros/Desktop/4/Uzun.Kabus.2018.1080p.BluRay.x264.TR.ENG.Filmbol.mkv
Format                                   : Matroska
Format version                           : Version 4
File size                                : 1.93 GiB
Duration                                 : 1 h 33 min
Overall bit rate                         : 2 963 kb/s
Movie name                               : Uzun Kabus - Slender Man - 2018 | Filmbol.org
Encoded date                             : UTC 2021-04-05 18:22:30
Writing application                      : mkvmerge v53.0.0 ('Fool's Gold') 64-bit
Writing library                          : libebml v1.4.1 + libmatroska v1.6.2

Video
ID                                       : 1
Format                                   : AVC
Format/Info                              : Advanced Video Codec
Format profile                           : [email protected]
Format settings                          : CABAC / 4 Ref Frames
Format settings, CABAC                   : Yes
Format settings, Reference frames        : 4 frames
Codec ID                                 : V_MPEG4/ISO/AVC
Duration                                 : 1 h 33 min
Bit rate                                 : 2 150 kb/s
Width                                    : 1 920 pixels
Height                                   : 800 pixels
Display aspect ratio                     : 2.40:1
Frame rate mode                          : Constant
Frame rate                               : 23.976 (24000/1001) FPS
Color space                              : YUV
Chroma subsampling                       : 4:2:0
Bit depth                                : 8 bits
Scan type                                : Progressive
Bits/(Pixel*Frame)                       : 0.058
Stream size                              : 1.40 GiB (73%)
Title                                    : 1080P - Filmbol.org
Writing library                          : x264 core 152
Encoding settings                        : cabac=1 / ref=4 / deblock=1:-1:-1 / analyse=0x3:0x133 / me=umh / subme=9 / psy=1 / psy_rd=1.00:0.15 / mixed_ref=1 / me_range=24 / chroma_me=1 / trellis=2 / 8x8dct=1 / cqm=0 / deadzone=21,11 / fast_pskip=0 / chroma_qp_offset=-3 / threads=12 / lookahead_threads=1 / sliced_threads=0 / nr=0 / decimate=1 / interlaced=0 / bluray_compat=0 / constrained_intra=0 / bframes=3 / b_pyramid=2 / b_adapt=2 / b_bias=0 / direct=3 / weightb=1 / open_gop=0 / weightp=2 / keyint=250 / keyint_min=23 / scenecut=40 / intra_refresh=0 / rc_lookahead=60 / rc=2pass / mbtree=1 / bitrate=2150 / ratetol=1.0 / qcomp=0.60 / qpmin=0 / qpmax=69 / qpstep=4 / cplxblur=20.0 / qblur=0.5 / vbv_maxrate=31250 / vbv_bufsize=31250 / nal_hrd=none / filler=0 / ip_ratio=1.40 / aq=1:1.00
Default                                  : Yes
Forced                                   : No

Audio #1
ID                                       : 2
Format                                   : AC-3
Format/Info                              : Audio Coding 3
Commercial name                          : Dolby Digital
Codec ID                                 : A_AC3
Duration                                 : 1 h 33 min
Bit rate mode                            : Constant
Bit rate                                 : 640 kb/s
Channel(s)                               : 6 channels
Channel layout                           : L R C LFE Ls Rs
Sampling rate                            : 48.0 kHz
Frame rate                               : 31.250 FPS (1536 SPF)
Compression mode                         : Lossy
Stream size                              : 427 MiB (22%)
Title                                    : Türkçe - Filmbol.org
Language                                 : Turkish
Service kind                             : Complete Main
Default                                  : Yes
Forced                                   : No

Audio #2
ID                                       : 3
Format                                   : AAC LC
Format/Info                              : Advanced Audio Codec Low Complexity
Codec ID                                 : A_AAC-2
Duration                                 : 1 h 33 min
Bit rate                                 : 158 kb/s
Channel(s)                               : 2 channels
Channel layout                           : L R
Sampling rate                            : 48.0 kHz
Frame rate                               : 46.875 FPS (1024 SPF)
Compression mode                         : Lossy
Stream size                              : 106 MiB (5%)
Title                                    : İngilizce - Filmbol.org
Language                                 : English
Default                                  : No
Forced                                   : No

Text
ID                                       : 4
Format                                   : PGS
Muxing mode                              : zlib
Codec ID                                 : S_HDMV/PGS
Codec ID/Info                            : Picture based subtitle format used on BDs/HD-DVDs
Duration                                 : 1 h 31 min
Bit rate                                 : 24.3 kb/s
Count of elements                        : 1428
Stream size                              : 15.9 MiB (1%)
Title                                    : Türkçe - Filmbol.org
Language                                 : Turkish
Default                                  : No
Forced                                   : No

Film Detayları


 Uzun Kâbus

 Uzun Kâbus

 Uzun Kâbus


Film Fragmanı


Film Detayları

Uptobox ile indir

1Fichier ile indir

1Fichier'den İndiremiyor musun? Tıklayın!


Mega linki şuan da gizli. Kullanıma açmak için konuya yorum yapın ve ardından sayfayı yenileyin.

Mega


Bunun için üzgünüz ancak, bu linke sadece premium üyeler erişebilir.

Filmbol Cloud





Şuan Offine!
Şuan Offine!
ahmetyee1 Süper Üye
***
Super Üye

  • Konular3
  • Mesajlar59
  • Rep puanı 0
çok iyi
Şuan Offine!
Şuan Offine!
samet görgülü Yeni Üye
*
Üye

  • Konular0
  • Mesajlar1
  • Rep puanı 0
çok iyi
Şuan Online!
Şuan Online!
BroserBros Kurucu Admin
*******
Admin

10.04.2021 Yönetici Notu:

Kırık linkler kontrol edildi, kaldırıldı ve yenilendi. Tüm linkler tamamen çalışır durumda.


Konu ile Alakalı Benzer Konular
Konular Yazar Yorumlar Okunma Son Yorum
Filmin Yayınlanma Tarihi: 2021
Yıldırım Gücü (Thunder Force) - 2021 - TR+ORG - 1080P | tt10121392 TheSteeL 0 6 6 saat önce
Son Yorum: TheSteeL
Filmin Yayınlanma Tarihi: 2020
Kadaver (Cadaver) - 2020 - TR+ORG - 1080P BroserBros 2 116 8 saat önce
Son Yorum: ömerk
Filmin Yayınlanma Tarihi: 2019
47 Metre Derinde: Kafes (47 Meters Down: Uncaged) - 2019 - TR+ORG - 1080P BroserBros 2 128 8 saat önce
Son Yorum: ömerk
Filmin Yayınlanma Tarihi: 2004
Shrek 2 (Şrek 2) - 2004 - TR+ORG - 1080P BroserBros 3 277 9 saat önce
Son Yorum: Ardacngz
Filmin Yayınlanma Tarihi: 2020
Polis (Police) - 2020 - TR+ORG - 1080P | tt9850344 TheSteeL 2 85 , Saat: 16:08
Son Yorum: TheSteeL

Hızlı Menü: