Filmbol Forum Film İndir 1080P v Evlilik Hikayesi (Marriage Story) - 2019 - TR+ORG - 1080P | tt7653254
Mega linklerinin şikayet edilmemesi için global erişime kapatıp sadece yorum yapanlara açıyoruz. Bu linkleri gizleme işlemini mecburen yapıyoruz ve yorum yapmanızın siteye değil size faydası vardır. Teşekürler yazmayı çok görüp, Random/Spam mesajlar atarak Mega linklerini açmaya çalışan kullanıcılara önce süresiz ban, devam ederse IP ban atacağız.
Filmbol'da moderatör olmak ister misiniz? Bizimle iletişime geçmek için tıklayın!
Evlilik Hikayesi (Marriage Story) - 2019 - TR+ORG - 1080P | tt7653254
BroserBros
Evlilik Hikayesi (Marriage Story) - 2019 - TR+ORG - 1080P | tt7653254
7
1135
  • Derecelendirme: 0/5 - 0 oy
  • 1
  • 2
  • 3
  • 4
  • 5
Konuyu Okuyanlar:1 Ziyaretçi
Şuan Online!
Filmin Yayınlanma Tarihi: 2019 
WWW
Şuan Online!
BroserBros Kurucu Admin
*******
Admin



 Evlilik Hikayesi



Marriage Story, evli bir çiftin New York’tan Los Angeles’a kadar uzanan boşanma hikayesini konu ediyor. Evlilkleri parçalanmak üzere olan bir yönetmen ve onun oyuncu olan karısına odaklanılan filmde, çifitn yıpratıcı boşanma süreçleri anlatılıyor.

Evlilik Hikayesi (2019) (Marriage Story) | tt7653254 Filmi Imdb'den 260,000 kişi tarafından oylandı ve 7,9 puan aldı. Bu film için editör puanı %83 olarak belirlendi. İyi Seyirler!

Teknik Detaylar

Kod :
General
Unique ID                                : 280523570792143983984778349456735260337 (0xD30ADFDFDAD04897CF9BADB56F92CEB1)
Complete name                            : /home/BroserBros/Desktop/1/Evlilik.Hikayesi.2019.1080p.BluRay.x264.TR.ENG.Filmbol.mkv
Format                                   : Matroska
Format version                           : Version 4
File size                                : 2.53 GiB
Duration                                 : 2 h 16 min
Overall bit rate                         : 2 641 kb/s
Movie name                               : Evlilik Hikayesi - Marriage Story - 2019 | Filmbol.org
Encoded date                             : UTC 2021-03-27 13:28:57
Writing application                      : mkvmerge v53.0.0 ('Fool's Gold') 64-bit
Writing library                          : libebml v1.4.1 + libmatroska v1.6.2

Video
ID                                       : 1
Format                                   : AVC
Format/Info                              : Advanced Video Codec
Format profile                           : [email protected]
Format settings                          : CABAC / 2 Ref Frames
Format settings, CABAC                   : Yes
Format settings, Reference frames        : 2 frames
Codec ID                                 : V_MPEG4/ISO/AVC
Duration                                 : 2 h 16 min
Bit rate                                 : 2 063 kb/s
Width                                    : 1 920 pixels
Height                                   : 1 080 pixels
Display aspect ratio                     : 16:9
Frame rate mode                          : Constant
Frame rate                               : 24.000 FPS
Color space                              : YUV
Chroma subsampling                       : 4:2:0
Bit depth                                : 8 bits
Scan type                                : Progressive
Bits/(Pixel*Frame)                       : 0.041
Stream size                              : 1.97 GiB (78%)
Title                                    : 1080P - Filmbol.org
Default                                  : Yes
Forced                                   : No

Audio #1
ID                                       : 2
Format                                   : AC-3
Format/Info                              : Audio Coding 3
Commercial name                          : Dolby Digital
Codec ID                                 : A_AC3
Duration                                 : 2 h 16 min
Bit rate mode                            : Constant
Bit rate                                 : 384 kb/s
Channel(s)                               : 6 channels
Channel layout                           : L R C LFE Ls Rs
Sampling rate                            : 48.0 kHz
Frame rate                               : 31.250 FPS (1536 SPF)
Compression mode                         : Lossy
Stream size                              : 376 MiB (15%)
Title                                    : Türkçe - Filmbol.org
Language                                 : Turkish
Service kind                             : Complete Main
Default                                  : Yes
Forced                                   : No

Audio #2
ID                                       : 3
Format                                   : AC-3
Format/Info                              : Audio Coding 3
Commercial name                          : Dolby Digital
Codec ID                                 : A_AC3
Duration                                 : 2 h 16 min
Bit rate mode                            : Constant
Bit rate                                 : 192 kb/s
Channel(s)                               : 2 channels
Channel layout                           : L R
Sampling rate                            : 48.0 kHz
Frame rate                               : 31.250 FPS (1536 SPF)
Compression mode                         : Lossy
Stream size                              : 188 MiB (7%)
Title                                    : Orjinal Dil - Filmbol.org
Language                                 : English
Service kind                             : Complete Main
Default                                  : No
Forced                                   : No

Text #1
ID                                       : 4
Format                                   : UTF-8
Codec ID                                 : S_TEXT/UTF8
Codec ID/Info                            : UTF-8 Plain Text
Duration                                 : 2 h 8 min
Bit rate                                 : 1 b/s
Count of elements                        : 45
Stream size                              : 1.04 KiB (0%)
Title                                    : FORCED
Language                                 : Turkish
Default                                  : Yes
Forced                                   : Yes

Text #2
ID                                       : 5
Format                                   : UTF-8
Codec ID                                 : S_TEXT/UTF8
Codec ID/Info                            : UTF-8 Plain Text
Duration                                 : 2 h 16 min
Bit rate                                 : 79 b/s
Count of elements                        : 2446
Stream size                              : 79.5 KiB (0%)
Title                                    : TAM
Language                                 : Turkish
Default                                  : No
Forced                                   : No

Film Detayları


 Evlilik Hikayesi

 Evlilik Hikayesi

 Evlilik Hikayesi


Film Fragmanı


Film Detayları

Uptobox ile indir

1Fichier ile indir

1Fichier'den İndiremiyor musun? Tıklayın!


Mega linki şuan da gizli. Kullanıma açmak için konuya yorum yapın ve ardından sayfayı yenileyin.

Mega


Bunun için üzgünüz ancak, bu linke sadece premium üyeler erişebilir.

Filmbol Cloud





Şuan Offine!
Şuan Offine!
muda Uzman Üye
**
Uzman Üye

  • Konular0
  • Mesajlar8
  • Rep puanı 0
tesekkürler
Şuan Offine!
Şuan Offine!
Aspirin46 Süper Üye
***
Super Üye

  • Konular0
  • Mesajlar57
  • Rep puanı 0
süper
Şuan Offine!
Şuan Offine!
Forsaken Uzman Üye
**
Uzman Üye

  • Konular0
  • Mesajlar9
  • Rep puanı 0
teşekkürler
Şuan Offine!
Şuan Offine!
morten Yeni Üye
*
Üye

  • Konular0
  • Mesajlar1
  • Rep puanı 0
teşekkürler, iyi çalışmalar.
Şuan Offine!
Şuan Offine!
thor Süper Üye
***
Super Üye

  • Konular0
  • Mesajlar34
  • Rep puanı 0
Adam is my dick
Şuan Offine!
Şuan Offine!
atunga55 Yeni Üye
*
Üye

  • Konular0
  • Mesajlar4
  • Rep puanı 0
teşekkürler
Şuan Online!
Şuan Online!
BroserBros Kurucu Admin
*******
Admin

30.03.2021 Yönetici Notu:

Kırık linkler kontrol edildi, kaldırıldı ve yenilendi. Tüm linkler tamamen çalışır durumda.


Konu ile Alakalı Benzer Konular
Konular Yazar Yorumlar Okunma Son Yorum
Filmin Yayınlanma Tarihi: 2015
Yeni Ahit (Le tout nouveau testament) - 2015 - TR+ORG - 1080P | tt3792960 TheSteeL 0 9 , Saat: 23:52
Son Yorum: TheSteeL
Filmin Yayınlanma Tarihi: 2015
Diriliş (The Revenant) - 2015 - TR+ORG - 1080P | tt1663202 BroserBros 5 3,154 , Saat: 19:43
Son Yorum: BroserBros
Filmin Yayınlanma Tarihi: 2018
Adalet 2 (The Equalizer 2) - 2018 - TR+ORG - 1080P | tt3766354 BroserBros 6 1,201 , Saat: 19:30
Son Yorum: BroserBros
Filmin Yayınlanma Tarihi: 2019
Aslan Kral (The Lion King) - 2019 - TR+ORG - 1080P | tt6105098 BroserBros 49 5,141 , Saat: 19:18
Son Yorum: BroserBros
Filmin Yayınlanma Tarihi: 2015
Ters Yüz (Inside Out) - 2015 - TR+ORG - 1080P | tt2096673 BroserBros 25 9,577 , Saat: 19:07
Son Yorum: BroserBros

Hızlı Menü: