Filmbol Forum Film İndir 720P v Evlilik Hikayesi (Marriage Story) - 2019 - TR+ORG - 720P | tt7653254
Mega linklerinin şikayet edilmemesi için global erişime kapatıp sadece yorum yapanlara açıyoruz. Bu linkleri gizleme işlemini mecburen yapıyoruz ve yorum yapmanızın siteye değil size faydası vardır. Teşekürler yazmayı çok görüp, Random/Spam mesajlar atarak Mega linklerini açmaya çalışan kullanıcılara önce süresiz ban, devam ederse IP ban atacağız.
Filmbol'da moderatör olmak ister misiniz? Bizimle iletişime geçmek için tıklayın!
Evlilik Hikayesi (Marriage Story) - 2019 - TR+ORG - 720P | tt7653254
BroserBros
Evlilik Hikayesi (Marriage Story) - 2019 - TR+ORG - 720P | tt7653254
5
932
  • Derecelendirme: 0/5 - 0 oy
  • 1
  • 2
  • 3
  • 4
  • 5
Konuyu Okuyanlar:1 Ziyaretçi
Şuan Online!
Filmin Yayınlanma Tarihi: 2019 
WWW
Şuan Online!
BroserBros Kurucu Admin
*******
Admin



 Evlilik Hikayesi



Marriage Story, evli bir çiftin New York’tan Los Angeles’a kadar uzanan boşanma hikayesini konu ediyor. Evlilkleri parçalanmak üzere olan bir yönetmen ve onun oyuncu olan karısına odaklanılan filmde, çifitn yıpratıcı boşanma süreçleri anlatılıyor.

Evlilik Hikayesi (2019) (Marriage Story) | tt7653254 Filmi Imdb'den 260,000 kişi tarafından oylandı ve 7,9 puan aldı. Bu film için editör puanı %83 olarak belirlendi. İyi Seyirler!

Teknik Detaylar

Kod :
General
Unique ID                                : 302768787250518496744073849845313577598 (0xE3C725B9546D34B543A815D9EB42227E)
Complete name                            : /home/BroserBros/Desktop/1/Evlilik.Hikayesi.2019.720p.BluRay.x264.TR.ENG.Filmbol.mkv
Format                                   : Matroska
Format version                           : Version 4
File size                                : 1.50 GiB
Duration                                 : 2 h 16 min
Overall bit rate                         : 1 571 kb/s
Writing application                      : Lavf58.20.100
Writing library                          : Lavf58.20.100
ErrorDetectionType                       : Per level 1

Video
ID                                       : 1
Format                                   : AVC
Format/Info                              : Advanced Video Codec
Format profile                           : [email protected]
Format settings                          : CABAC / 4 Ref Frames
Format settings, CABAC                   : Yes
Format settings, Reference frames        : 4 frames
Codec ID                                 : V_MPEG4/ISO/AVC
Duration                                 : 2 h 16 min
Bit rate                                 : 1 000 kb/s
Width                                    : 1 920 pixels
Height                                   : 1 080 pixels
Display aspect ratio                     : 16:9
Frame rate mode                          : Constant
Frame rate                               : 24.000 FPS
Color space                              : YUV
Chroma subsampling                       : 4:2:0
Bit depth                                : 8 bits
Scan type                                : Progressive
Bits/(Pixel*Frame)                       : 0.020
Stream size                              : 944 MiB (61%)
Writing library                          : x264 core 157
Encoding settings                        : cabac=1 / ref=3 / deblock=1:0:0 / analyse=0x3:0x133 / me=hex / subme=7 / psy=1 / psy_rd=1.00:0.00 / mixed_ref=1 / me_range=16 / chroma_me=1 / trellis=1 / 8x8dct=1 / cqm=0 / deadzone=21,11 / fast_pskip=1 / chroma_qp_offset=-2 / threads=9 / lookahead_threads=1 / sliced_threads=0 / nr=0 / decimate=1 / interlaced=0 / bluray_compat=0 / constrained_intra=0 / bframes=3 / b_pyramid=2 / b_adapt=1 / b_bias=0 / direct=1 / weightb=1 / open_gop=0 / weightp=2 / keyint=250 / keyint_min=25 / scenecut=40 / intra_refresh=0 / rc_lookahead=40 / rc=abr / mbtree=1 / bitrate=1000 / ratetol=1.0 / qcomp=0.60 / qpmin=10 / qpmax=51 / qpstep=4 / ip_ratio=1.40 / aq=1:1.00
Default                                  : Yes
Forced                                   : No

Audio #1
ID                                       : 2
Format                                   : AC-3
Format/Info                              : Audio Coding 3
Commercial name                          : Dolby Digital
Codec ID                                 : A_AC3
Duration                                 : 2 h 16 min
Bit rate mode                            : Constant
Bit rate                                 : 384 kb/s
Channel(s)                               : 6 channels
Channel layout                           : L R C LFE Ls Rs
Sampling rate                            : 48.0 kHz
Frame rate                               : 31.250 FPS (1536 SPF)
Compression mode                         : Lossy
Stream size                              : 376 MiB (24%)
Language                                 : Turkish
Service kind                             : Complete Main
Default                                  : Yes
Forced                                   : No

Audio #2
ID                                       : 3
Format                                   : AC-3
Format/Info                              : Audio Coding 3
Commercial name                          : Dolby Digital
Codec ID                                 : A_AC3
Duration                                 : 2 h 16 min
Bit rate mode                            : Constant
Bit rate                                 : 192 kb/s
Channel(s)                               : 2 channels
Channel layout                           : L R
Sampling rate                            : 48.0 kHz
Frame rate                               : 31.250 FPS (1536 SPF)
Compression mode                         : Lossy
Stream size                              : 188 MiB (12%)
Service kind                             : Complete Main
Default                                  : Yes
Forced                                   : No

Film Detayları


 Evlilik Hikayesi

 Evlilik Hikayesi

 Evlilik Hikayesi


Film Fragmanı


Film Detayları

Uptobox ile indir

1Fichier ile indir

1Fichier'den İndiremiyor musun? Tıklayın!


Mega linki şuan da gizli. Kullanıma açmak için konuya yorum yapın ve ardından sayfayı yenileyin.

Mega


Bunun için üzgünüz ancak, bu linke sadece premium üyeler erişebilir.

Filmbol Cloud





Şuan Offine!
Şuan Offine!
isayhan Süper Üye
***
Super Üye

  • Konular0
  • Mesajlar28
  • Rep puanı 0
paylaşım için teşekkürler
Şuan Offine!
Şuan Offine!
zynpcnsvn Yeni Üye
*
Üye

  • Konular0
  • Mesajlar1
  • Rep puanı 0
Teşekkürler
Şuan Offine!
Şuan Offine!
KayaFurkan Yeni Üye
*
Üye

  • Konular0
  • Mesajlar2
  • Rep puanı 0
Teşekkürler
Şuan Offine!
Şuan Offine!
thor Süper Üye
***
Super Üye

  • Konular0
  • Mesajlar34
  • Rep puanı 0
Norm Ender
Şuan Online!
Şuan Online!
BroserBros Kurucu Admin
*******
Admin

30.03.2021 Yönetici Notu:

Kırık linkler kontrol edildi, kaldırıldı ve yenilendi. Tüm linkler tamamen çalışır durumda.


Konu ile Alakalı Benzer Konular
Konular Yazar Yorumlar Okunma Son Yorum
Filmin Yayınlanma Tarihi: 2021
Yıldırım Gücü (Thunder Force) - 2021 - TR+ORG - 720P | tt10121392 TheSteeL 0 6 6 saat önce
Son Yorum: TheSteeL
Filmin Yayınlanma Tarihi: 2019
Kırk Yalan (Kirk Yalan) - 2019 - TR+ORG - 720P | tt11402172 TheSteeL 2 53 6 saat önce
Son Yorum: TheSteeL
Filmin Yayınlanma Tarihi: 2013
Demir Adam 3 (Iron Man Three) - 2013 - TR+ORG - 720P | tt1300854 BroserBros 5 3,684 10-04-2021, Saat: 23:37
Son Yorum: ezobaskan
Filmin Yayınlanma Tarihi: 2012
Gerçeğin Peşinde (Man on a Ledge) - 2012 - TR+ORG - 720P | tt1568338 BroserBros 2 379 10-04-2021, Saat: 20:00
Son Yorum: BroserBros
Filmin Yayınlanma Tarihi: 2006
X-Men: Son Direniş (X-Men: The Last Stand) - 2006 - TR+ORG - 720P | tt0376994 BroserBros 4 2,413 10-04-2021, Saat: 19:47
Son Yorum: BroserBros

Hızlı Menü: