Filmbol Forum Film İndir 720P v Hızlı ve Öfkeli: Hobbs ve Shaw (Fast & Furious) Türkçe Dublaj BLURAY m720P İndir
Mega linklerinin şikayet edilmemesi için global erişime kapatıp sadece yorum yapanlara açıyoruz. Bu linkleri gizleme işlemini mecburen yapıyoruz ve yorum yapmanızın siteye değil size faydası vardır. Teşekürler yazmayı çok görüp, Random/Spam mesajlar atarak Mega linklerini açmaya çalışan kullanıcılara önce süresiz ban, devam ederse IP ban atacağız.
Filmbol'da moderatör olmak ister misiniz? Bizimle iletişime geçmek için tıklayın!
Hızlı ve Öfkeli: Hobbs ve Shaw (Fast & Furious) Türkçe Dublaj BLURAY m720P İndir
BroserBros
Hızlı ve Öfkeli: Hobbs ve Shaw (Fast & Furious) Türkçe Dublaj BLURAY m720P İndir
27
2912
  • Derecelendirme: 0/5 - 0 oy
  • 1
  • 2
  • 3
  • 4
  • 5
Konuyu Okuyanlar:1 Ziyaretçi
Şuan Online!
Filmin Yayınlanma Tarihi: 2019 
WWW
Şuan Online!
BroserBros Kurucu Admin
*******
Admin





Ses Kodek: AC3


Audio Coding 3 (AC3)






Hizli ve Ofkeli Hobs ve Shaw



Teknik Detaylar


Kod :
General
Complete name                            : Hızlı.ve.Öfkeli.Hobbs.ve.Shaw.2019.720P.BLURAY.x264.TR.Filmbol.mkv
Format                                   : Matroska
Format version                           : Version 4 / Version 2
File size                                : 1.42 GiB
Duration                                 : 2h 16mn
Overall bit rate                         : 1 483 Kbps
Movie name                               : Hızlı ve Öfkeli: Hobs ve Shaw (2019) - Filmbol.org
Encoded date                             : UTC 2019-11-24 18:03:19
Writing application                      : mkvmerge v35.0.0 ('All The Love In The World') 64-bit
Writing library                          : libebml v1.3.9 + libmatroska v1.5.2

Video
ID                                       : 1
Format                                   : AVC
Format/Info                              : Advanced Video Codec
Format profile                           : [email protected]
Format settings, CABAC                   : Yes
Format settings, ReFrames                : 4 frames
Codec ID                                 : V_MPEG4/ISO/AVC
Duration                                 : 2h 16mn
Bit rate                                 : 1 100 Kbps
Width                                    : 1 280 pixels
Height                                   : 534 pixels
Display aspect ratio                     : 2.40:1
Original display aspect ratio            : 2.40:1
Frame rate mode                          : Constant
Frame rate                               : 23.976 (24000/1001) fps
Color space                              : YUV
Chroma subsampling                       : 4:2:0
Bit depth                                : 8 bits
Scan type                                : Progressive
Bits/(Pixel*Frame)                       : 0.067
Stream size                              : 1.05 GiB (74%)
Title                                    : 720P - Filmbol.org
Writing library                          : x264 core 158
Default                                  : Yes
Forced                                   : No

Audio
ID                                       : 2
Format                                   : AC-3
Format/Info                              : Audio Coding 3
Mode extension                           : CM (complete main)
Format settings, Endianness              : Big
Codec ID                                 : A_AC3
Duration                                 : 2h 15mn
Bit rate mode                            : Constant
Bit rate                                 : 384 Kbps
Channel(s)                               : 6 channels
Channel positions                        : Front: L C R, Side: L R, LFE
Sampling rate                            : 48.0 KHz
Frame rate                               : 31.250 fps (1536 spf)
Compression mode                         : Lossy
Stream size                              : 373 MiB (26%)
Title                                    : Türkçe - Filmbol.org
Language                                 : Turkish
Default                                  : Yes
Forced                                   : No

Text
ID                                       : 3
Format                                   : UTF-8
Codec ID                                 : S_TEXT/UTF8
Codec ID/Info                            : UTF-8 Plain Text
Duration                                 : 2h 0mn
Bit rate                                 : 0 bps
Count of elements                        : 32
Stream size                              : 877 Bytes (0%)
Title                                    : KISIM
Language                                 : Turkish
Default                                  : Yes
Forced                                   : Yes

Film Detayları


Hizli ve Ofkeli Hobs ve Shaw

Hizli ve Ofkeli Hobs ve Shaw

Hizli ve Ofkeli Hobs ve Shaw


Film Fragmanı


Film Detayları

Mini 720P İndir



Uptobox ile indir

DosyaUpload ile indir

Mega linki şuan da gizli. Kullanıma açmak için konuya yorum yapın ve ardından sayfayı yenileyin.

Mega


MediaFire ile indir

Şuan Offine!
Şuan Offine!
Arif DEĞERCAN Süper Üye
***
Super Üye

  • Konular0
  • Mesajlar33
  • Rep puanı 0
John Wick 3 ?  Big Grin Big Grin Big Grin Big Grin
Şuan Offine!
Şuan Offine!
readerss Uzman Üye
**
Uzman Üye

  • Konular0
  • Mesajlar8
  • Rep puanı 0
harika
Şuan Offine!
Şuan Offine!
onder_gfb Yeni Üye
*
Üye

  • Konular0
  • Mesajlar2
  • Rep puanı 0
indirelim görelim bakalım
Şuan Offine!
Şuan Offine!
Serhat1 Uzman Üye
**
Uzman Üye

  • Konular0
  • Mesajlar8
  • Rep puanı 0
Wonderful
Şuan Offine!
Şuan Offine!
brsgk75 Yeni Üye
*
Üye

  • Konular0
  • Mesajlar2
  • Rep puanı 0
G7sellll
Şuan Offine!
Şuan Offine!
papalina8 Yeni Üye
*
Üye

  • Konular0
  • Mesajlar2
  • Rep puanı 0
10 NUMARA EYV ADMİN
Şuan Offine!
Şuan Offine!
Onlyou83 Uzman Üye
**
Uzman Üye

  • Konular0
  • Mesajlar11
  • Rep puanı 0
Shy thank
Şuan Offine!
Şuan Offine!
agresif Uzman Üye
**
Uzman Üye

  • Konular0
  • Mesajlar21
  • Rep puanı 0
teşekkürler
Şuan Offine!
Şuan Offine!
okan3509 Yeni Üye
*
Üye

  • Konular0
  • Mesajlar3
  • Rep puanı 0
FENAAAA


Konu ile Alakalı Benzer Konular
Konular Yazar Yorumlar Okunma Son Yorum
Filmin Yayınlanma Tarihi: 2014
Hobbit: Beş Ordunun Savaşı Türkçe Dublaj 720P İndir BroserBros 7 5,595 03-04-2021, Saat: 22:08
Son Yorum: Dilan
Filmin Yayınlanma Tarihi: 2013
Hobbit: Smaug'un Çorak Toprakları Türkçe Dublaj 720P İndir BroserBros 2 4,027 03-04-2021, Saat: 22:07
Son Yorum: Dilan
Filmin Yayınlanma Tarihi: 2012
Hobbit: Beklenmedik Yolculuk (An Unexpected Journey) Türkçe Dublaj 720P İndir BroserBros 3 6,125 03-04-2021, Saat: 20:48
Son Yorum: Dilan
Filmin Yayınlanma Tarihi: 2014
İnsan Avı (A Most Wanted Man) Türkçe Dublaj m720P İndir BroserBros 2 1,186 03-04-2021, Saat: 00:51
Son Yorum: jonwik47
Filmin Yayınlanma Tarihi: 2015
Ters Yüz (Inside Out) Türkçe Dublaj 720P İndir BroserBros 9 7,053 01-04-2021, Saat: 16:28
Son Yorum: ahmetyee1

Hızlı Menü: