⤤ Premium'a Yükselt

Merhaba, Ziyaretçi. Mega linklerinin bir kısmı deaktif halde ve yenileme çalışmalarına başladık. Bu süre içinde ikinci duyuruya kadar mega linklerini raporlamayın!! x

Filmbol Forum Film İndir 3D v Hızlı ve Öfkeli: Hobbs ve Shaw (Fast & Furious Presents: Hobbs & Shaw) - 2019 - TR+ORG - 3D | tt6806448

Filmbol TV kullanıma açıldı. Bu adresten giriş yapabilirsin: Giriş





Hızlı ve Öfkeli: Hobbs ve Shaw (Fast & Furious Presents: Hobbs & Shaw) - 2019 - TR+ORG - 3D | tt6806448
BroserBros
Hızlı ve Öfkeli: Hobbs ve Shaw (Fast & Furious Presents: Hobbs & Shaw) - 2019 - TR+ORG - 3D | tt6806448
14
1618
  • Derecelendirme: 0/5 - 0 oy
  • 1
  • 2
  • 3
  • 4
  • 5
Konuyu Okuyanlar:3 Ziyaretçi
Şuan Online!
Filmin Yayınlanma Tarihi: 2019 
WWW
Rapor Et!
Şuan Online!
BroserBros Kurucu Admin
*******
Admin



 Hızlı ve Öfkeli: Hobbs ve Shaw



Hızlı ve Öfkeli serisinin spin-off filmi olan Hızlı ve Öfkeli: Hobbs ve Shaw, insanlığı tehlikeye sokan bir güce karşı birlikte hareket etmek zorunda kalan Hobbs ve Shaw’un hikayesini konu ediyor.Amerika’nın Diplomatik Güvenlik Hizmetlerinin sadık bir ajanı olan Luke Hobbs ile eski bir İngiliz askeri elit ajanı olan Deckard Shaw, yıllar boyu birbirlerini yenmeye çalışsalar da bu kez birlikte hareket etmek zorundadır. İnsanlık, büyük bir biyolojik tehdit ile karşı karşıyadır. Siber genetik ile güçlendirilmiş anarşist Brixton, insanlığın değişmesine neden olabilecek olan biyolojik virüsü ele geçirir. Dünyayı tehlikeye sokan Brixton’ı yenmek zorunda olan iri kıyım kanun adamı Hobbs ile kanunları hiçe sayan Shaw’un güçlerini birleştirip, birlikte mücadele etmekten başka şansı yoktur.

Hızlı ve Öfkeli: Hobbs ve Shaw (2019) (Fast & Furious Presents: Hobbs & Shaw) | tt6806448 Filmi Imdb'den 175,000 kişi tarafından oylandı ve 6,4 puan aldı. Bu film için editör puanı %78 olarak belirlendi. İyi Seyirler!

Teknik Detaylar

Kod :
General
Unique ID                                : 221204007872798072533011075886680213180 (0xA66A579E398DDDAE02239789D15986BC)
Complete name                            : /home/BroserBros/Desktop/2/Hızlı.Ve.Öfkeli.Hobbs.ve.Shaw.2019.3D.HSBS.BluRay.x264.TR.ENG.Filmbol.mkv
Format                                   : Matroska
Format version                           : Version 4
File size                                : 2.76 GiB
Duration                                 : 2 h 15 min
Overall bit rate                         : 2 905 kb/s
Movie name                               : Hızlı ve Öfkeli: Hobbs ve Shaw - Fast & Furious Presents: Hobbs ve Shaw - 2019 | Filmbol.org
Encoded date                             : UTC 2021-05-14 12:52:31
Writing application                      : mkvmerge v53.0.0 ('Fool's Gold') 64-bit
Writing library                          : libebml v1.4.1 + libmatroska v1.6.2

Video
ID                                       : 1
Format                                   : AVC
Format/Info                              : Advanced Video Codec
Format profile                           : [email protected]
Format settings                          : CABAC / 4 Ref Frames
Format settings, CABAC                   : Yes
Format settings, Reference frames        : 4 frames
Codec ID                                 : V_MPEG4/ISO/AVC
Duration                                 : 2 h 15 min
Bit rate                                 : 2 100 kb/s
Width                                    : 1 920 pixels
Height                                   : 800 pixels
Display aspect ratio                     : 2.40:1
Frame rate mode                          : Constant
Frame rate                               : 23.976 (24000/1001) FPS
Color space                              : YUV
Chroma subsampling                       : 4:2:0
Bit depth                                : 8 bits
Scan type                                : Progressive
Bits/(Pixel*Frame)                       : 0.057
Stream size                              : 1.99 GiB (72%)
Title                                    : 720P - Filmbol.org
Writing library                          : x264 core 158
Encoding settings                        : cabac=1 / ref=4 / deblock=1:-1:-1 / analyse=0x3:0x133 / me=umh / subme=9 / psy=1 / psy_rd=1.00:0.15 / mixed_ref=1 / me_range=24 / chroma_me=1 / trellis=2 / 8x8dct=1 / cqm=0 / deadzone=21,11 / fast_pskip=0 / chroma_qp_offset=-3 / threads=18 / lookahead_threads=1 / sliced_threads=0 / nr=0 / decimate=1 / interlaced=0 / bluray_compat=0 / constrained_intra=0 / bframes=3 / b_pyramid=2 / b_adapt=2 / b_bias=0 / direct=3 / weightb=1 / open_gop=0 / weightp=2 / keyint=250 / keyint_min=23 / scenecut=40 / intra_refresh=0 / rc_lookahead=60 / rc=2pass / mbtree=1 / bitrate=2100 / ratetol=1.0 / qcomp=0.60 / qpmin=0 / qpmax=69 / qpstep=4 / cplxblur=20.0 / qblur=0.5 / vbv_maxrate=31250 / vbv_bufsize=31250 / nal_hrd=none / filler=0 / ip_ratio=1.40 / aq=1:1.00
Default                                  : Yes
Forced                                   : No

Audio #1
ID                                       : 2
Format                                   : AC-3
Format/Info                              : Audio Coding 3
Commercial name                          : Dolby Digital
Codec ID                                 : A_AC3
Duration                                 : 2 h 15 min
Bit rate mode                            : Constant
Bit rate                                 : 640 kb/s
Channel(s)                               : 6 channels
Channel layout                           : L R C LFE Ls Rs
Sampling rate                            : 48.0 kHz
Frame rate                               : 31.250 FPS (1536 SPF)
Compression mode                         : Lossy
Delay relative to video                  : -43 ms
Stream size                              : 622 MiB (22%)
Title                                    : Türkçe - Filmbol.org
Language                                 : Turkish
Service kind                             : Complete Main
Default                                  : Yes
Forced                                   : Yes

Audio #2
ID                                       : 3
Format                                   : AAC LC
Format/Info                              : Advanced Audio Codec Low Complexity
Codec ID                                 : A_AAC-2
Duration                                 : 2 h 15 min
Bit rate                                 : 144 kb/s
Channel(s)                               : 2 channels
Channel layout                           : L R
Sampling rate                            : 48.0 kHz
Frame rate                               : 46.875 FPS (1024 SPF)
Compression mode                         : Lossy
Delay relative to video                  : -43 ms
Stream size                              : 138 MiB (5%)
Title                                    : Orijinal Dil - Filmbol.org
Language                                 : English
Default                                  : No
Forced                                   : No

Text #1
ID                                       : 4
Format                                   : PGS
Muxing mode                              : zlib
Codec ID                                 : S_HDMV/PGS
Codec ID/Info                            : Picture based subtitle format used on BDs/HD-DVDs
Duration                                 : 2 h 12 min
Bit rate                                 : 539 b/s
Count of elements                        : 52
Stream size                              : 523 KiB (0%)
Title                                    : Türkçe Forced - Filmbol.org
Language                                 : Turkish
Default                                  : Yes
Forced                                   : Yes

Text #2
ID                                       : 5
Format                                   : PGS
Muxing mode                              : zlib
Codec ID                                 : S_HDMV/PGS
Codec ID/Info                            : Picture based subtitle format used on BDs/HD-DVDs
Duration                                 : 2 h 15 min
Bit rate                                 : 41.6 kb/s
Count of elements                        : 3296
Stream size                              : 40.2 MiB (1%)
Title                                    : Türkçe - Filmbol.org
Language                                 : Turkish
Default                                  : No
Forced                                   : No

Film Detayları


 Hızlı ve Öfkeli: Hobbs ve Shaw

 Hızlı ve Öfkeli: Hobbs ve Shaw

 Hızlı ve Öfkeli: Hobbs ve Shaw


Film Fragmanı


Film İndir


Rar Şifresi: filmbol.org


Uptobox ile indir

1Fichier ile indir

1Fichier'den İndiremiyor musun? Tıklayın!












Şuan Offine!
Rapor Et!
Şuan Offine!
furkangundede Üye
*
Üye
  • Konular0
  • Mesajlar4
  • Rep puanı 0
Mükemmel
Şuan Offine!
Rapor Et!
Şuan Offine!
Rustu_1905 Uzman Üye
**
Uzman Üye
  • Konular0
  • Mesajlar14
  • Rep puanı 0
çohh iyiii
Şuan Online!
Rapor Et!
Şuan Online!
BroserBros Kurucu Admin
*******
Admin
15.05.2021 Yönetici Notu:

Kırık linkler kontrol edildi, kaldırıldı ve yenilendi. Tüm linkler tamamen çalışır durumda.
Şuan Offine!
Rapor Et!
Şuan Offine!
oguzbagdan Uzman Üye
**
Uzman Üye
  • Konular0
  • Mesajlar16
  • Rep puanı 0
teşekkürler
Şuan Offine!
Rapor Et!
Şuan Offine!
rule06 Üye
*
Üye
  • Konular0
  • Mesajlar77
  • Rep puanı 1
tesekkur ederım
Şuan Offine!
Rapor Et!
Şuan Offine!
wintalker46 Uzman Üye
**
Uzman Üye
  • Konular0
  • Mesajlar314
  • Rep puanı 0
Teşekkürler.
Şuan Offine!
Rapor Et!
Şuan Offine!
talat41 Üye
*
Üye
  • Konular0
  • Mesajlar135
  • Rep puanı 0
Teşekkürler.
Şuan Offine!
Rapor Et!
Şuan Offine!
ssakman2 Üye
*
Üye
  • Konular0
  • Mesajlar12
  • Rep puanı 0
Teşekkürler.
Şuan Offine!
Rapor Et!
Şuan Offine!
mehmetsakirarslan Üye
*
Üye
  • Konular0
  • Mesajlar29
  • Rep puanı 0
Teşekkürler.


Hızlı Menü: