Filmbol Forum Film İndir BRRip XviD v Mad Max: Öfkeli Yollar (Mad Max: Fury Road) - 2015 - TR - BRRip XviD | tt1392190
Mega linklerinin şikayet edilmemesi için global erişime kapatıp sadece yorum yapanlara açıyoruz. Bu linkleri gizleme işlemini mecburen yapıyoruz ve yorum yapmanızın siteye değil size faydası vardır. Teşekürler yazmayı çok görüp, Random/Spam mesajlar atarak Mega linklerini açmaya çalışan kullanıcılara önce süresiz ban, devam ederse IP ban atacağız.
Filmbol'da moderatör olmak ister misiniz? Bizimle iletişime geçmek için tıklayın!
Mad Max: Öfkeli Yollar (Mad Max: Fury Road) - 2015 - TR - BRRip XviD | tt1392190
BroserBros
Mad Max: Öfkeli Yollar (Mad Max: Fury Road) - 2015 - TR - BRRip XviD | tt1392190
5
2420
  • Derecelendirme: 0/5 - 0 oy
  • 1
  • 2
  • 3
  • 4
  • 5
Konuyu Okuyanlar:1 Ziyaretçi
Şuan Online!
Filmin Yayınlanma Tarihi: 2015 
WWW
Şuan Online!
BroserBros Kurucu Admin
*******
Admin



 Mad Max: Öfkeli Yollar



Nükleer savaşın ardından dünya, çöllerin yaygınlaştığı ve susuzluk problemlerinin arttığı bir yere dönüşmüş, medeniyet çöküşleri olmuştur. Uzun yıllar hayatta kalan Ölümsüz Joe, dünyaya hükmetmektedir. Max ise, Ölümsüz Joe’nin kan torbası olarak tutulmaktadır. Max buna karşı olduğundan her zaman kaçış yeri arayacaktır. Kaçabildiği zaman ise Ölümsüz Joe’nin, dünyanın patronu ‘nun düşmanı olmayı göze almalıdır.

Mad Max: Öfkeli Yollar (2015) (Mad Max: Fury Road) | tt1392190 Filmi Imdb'den 900,000 kişi tarafından oylandı ve 8,1 puan aldı. Bu film için editör puanı %93 olarak belirlendi. İyi Seyirler!

Teknik Detaylar

Kod :
General
Unique ID                                : 249444647314548043025716257864287056704 (0xBBA94AA48789CCCFDF9B8ED4420CF340)
Complete name                            : /home/BroserBros/Desktop/8/Mad.Max.Öfkeli.Yollar.2015.BRRip.XviD.TR.Filmbol.mkv
Format                                   : Matroska
Format version                           : Version 4
File size                                : 1.41 GiB
Duration                                 : 2 h 0 min
Overall bit rate                         : 1 679 kb/s
Movie name                               : Mad Max: Öfkeli Yollar - Mad Max: Fury Road - 2015 | Filmbol.org
Encoded date                             : UTC 2021-04-13 15:31:36
Writing application                      : mkvmerge v53.0.0 ('Fool's Gold') 64-bit
Writing library                          : libebml v1.4.1 + libmatroska v1.6.2

Video
ID                                       : 1
Format                                   : MPEG-4 Visual
Format profile                           : Advanced [email protected]
Format settings                          : BVOP1
Format settings, BVOP                    : 1
Format settings, QPel                    : No
Format settings, GMC                     : No warppoints
Format settings, Matrix                  : Default (H.263)
Muxing mode                              : Packed bitstream
Codec ID                                 : V_MS/VFW/FOURCC / FMP4
Duration                                 : 2 h 0 min
Bit rate                                 : 1 485 kb/s
Width                                    : 720 pixels
Height                                   : 304 pixels
Display aspect ratio                     : 2.35:1
Frame rate mode                          : Constant
Frame rate                               : 23.976 (23976/1000) FPS
Color space                              : YUV
Chroma subsampling                       : 4:2:0
Bit depth                                : 8 bits
Scan type                                : Progressive
Compression mode                         : Lossy
Bits/(Pixel*Frame)                       : 0.283
Stream size                              : 1.25 GiB (88%)
Title                                    : Mad Max: Öfkeli Yollar - Mad Max: Fury Road - 2015 | Filmbol.org
Writing library                          : XviD 1.2.1 (UTC 2008-12-04)
Default                                  : Yes
Forced                                   : No

Audio
ID                                       : 2
Format                                   : MPEG Audio
Format version                           : Version 1
Format profile                           : Layer 3
Format settings                          : Joint stereo / MS Stereo
Codec ID                                 : A_MPEG/L3
Codec ID/Hint                            : MP3
Duration                                 : 2 h 0 min
Bit rate mode                            : Constant
Bit rate                                 : 192 kb/s
Channel(s)                               : 2 channels
Sampling rate                            : 48.0 kHz
Frame rate                               : 41.667 FPS (1152 SPF)
Compression mode                         : Lossy
Stream size                              : 165 MiB (11%)
Title                                    : Mad Max: Öfkeli Yollar - Mad Max: Fury Road - 2015 | Filmbol.org
Writing library                          : LAME3.99.5Uß/ÎϽ )0
Default                                  : Yes
Forced                                   : No

Film Detayları


 Mad Max: Öfkeli Yollar

 Mad Max: Öfkeli Yollar

 Mad Max: Öfkeli Yollar


Film Fragmanı


Film Detayları


Uptobox ile indir

1Fichier ile indir

1Fichier'den İndiremiyor musun? Tıklayın!


Mega linki şuan da gizli. Kullanıma açmak için konuya yorum yapın ve ardından sayfayı yenileyin.

Mega


Bunun için üzgünüz ancak, bu linke sadece premium üyeler erişebilir.

Filmbol Cloud





Şuan Online!
Şuan Online!
BroserBros Kurucu Admin
*******
Admin

10.12.2019 Güncelleme Notu:

Linkler yenilendi. Kırık linkler kaldırıldı ve Genel Konu Düzenlemesi Yapıldı
Şuan Offine!
Şuan Offine!
Ap0calypse Süper Üye
***
Super Üye

  • Konular0
  • Mesajlar39
  • Rep puanı 0
eline sağlık
Şuan Online!
Şuan Online!
Furkan61 Süper Üye
***
Super Üye

  • Konular0
  • Mesajlar227
  • Rep puanı 4
güzel
Şuan Offine!
Şuan Offine!
mamicc Yeni Üye
*
Üye

  • Konular0
  • Mesajlar1
  • Rep puanı 0
teşekürlewr
Şuan Online!
Şuan Online!
BroserBros Kurucu Admin
*******
Admin

14.04.2021 Yönetici Notu:

Kırık linkler kontrol edildi, kaldırıldı ve yenilendi. Tüm linkler tamamen çalışır durumda.


Hızlı Menü: