Filmbol Forum Film İndir 1080P v Mad Max: Öfkeli Yollar (Mad Max: Fury Road) - 2015 - TR+ORG - 1080P | tt1392190
Mega linklerinin şikayet edilmemesi için global erişime kapatıp sadece yorum yapanlara açıyoruz. Bu linkleri gizleme işlemini mecburen yapıyoruz ve yorum yapmanızın siteye değil size faydası vardır. Teşekürler yazmayı çok görüp, Random/Spam mesajlar atarak Mega linklerini açmaya çalışan kullanıcılara önce süresiz ban, devam ederse IP ban atacağız.
Filmbol'da moderatör olmak ister misiniz? Bizimle iletişime geçmek için tıklayın!
Mad Max: Öfkeli Yollar (Mad Max: Fury Road) - 2015 - TR+ORG - 1080P | tt1392190
BroserBros
Mad Max: Öfkeli Yollar (Mad Max: Fury Road) - 2015 - TR+ORG - 1080P | tt1392190
11
3976
  • Derecelendirme: 0/5 - 0 oy
  • 1
  • 2
  • 3
  • 4
  • 5
Konuyu Okuyanlar:1 Ziyaretçi
Şuan Online!
Filmin Yayınlanma Tarihi: 2015 
WWW
Şuan Online!
BroserBros Kurucu Admin
*******
Admin



 Mad Max: Öfkeli Yollar



Nükleer savaşın ardından dünya, çöllerin yaygınlaştığı ve susuzluk problemlerinin arttığı bir yere dönüşmüş, medeniyet çöküşleri olmuştur. Uzun yıllar hayatta kalan Ölümsüz Joe, dünyaya hükmetmektedir. Max ise, Ölümsüz Joe’nin kan torbası olarak tutulmaktadır. Max buna karşı olduğundan her zaman kaçış yeri arayacaktır. Kaçabildiği zaman ise Ölümsüz Joe’nin, dünyanın patronu ‘nun düşmanı olmayı göze almalıdır.

Mad Max: Öfkeli Yollar (2015) (Mad Max: Fury Road) | tt1392190 Filmi Imdb'den 900,000 kişi tarafından oylandı ve 8,1 puan aldı. Bu film için editör puanı %93 olarak belirlendi. İyi Seyirler!

Teknik Detaylar

Kod :
General
Unique ID                                : 244488650976295016169932318471659217701 (0xB7EECD2868231961E2A804CCCACC6325)
Complete name                            : /home/BroserBros/Desktop/8/Mad.Max.Öfkeli.Yollar.2015.1080P.BluRay.x264.TR.ENG.Filmbol.mkv
Format                                   : Matroska
Format version                           : Version 4
File size                                : 2.00 GiB
Duration                                 : 2 h 0 min
Overall bit rate                         : 2 384 kb/s
Movie name                               : Mad Max: Öfkeli Yollar - Mad Max: Fury Road - 2015 | Filmbol.org
Encoded date                             : UTC 2021-04-13 15:09:28
Writing application                      : mkvmerge v53.0.0 ('Fool's Gold') 64-bit
Writing library                          : libebml v1.4.1 + libmatroska v1.6.2

Video
ID                                       : 1
Format                                   : AVC
Format/Info                              : Advanced Video Codec
Format profile                           : [email protected]
Format settings                          : CABAC / 4 Ref Frames
Format settings, CABAC                   : Yes
Format settings, Reference frames        : 4 frames
Codec ID                                 : V_MPEG4/ISO/AVC
Duration                                 : 2 h 0 min
Bit rate                                 : 2 097 kb/s
Width                                    : 1 920 pixels
Height                                   : 800 pixels
Display aspect ratio                     : 2.40:1
Frame rate mode                          : Constant
Frame rate                               : 23.976 (24000/1001) FPS
Original frame rate                      : 23.976 (23976/1000) FPS
Color space                              : YUV
Chroma subsampling                       : 4:2:0
Bit depth                                : 8 bits
Scan type                                : Progressive
Bits/(Pixel*Frame)                       : 0.057
Stream size                              : 1.76 GiB (88%)
Title                                    : 1080P - Filmbol.org
Writing library                          : x264 core 123 r2189 35cf912
Encoding settings                        : cabac=1 / ref=4 / deblock=1:-1:-1 / analyse=0x3:0x133 / me=umh / subme=9 / psy=1 / psy_rd=1.00:0.15 / mixed_ref=1 / me_range=24 / chroma_me=1 / trellis=2 / 8x8dct=1 / cqm=0 / deadzone=21,11 / fast_pskip=0 / chroma_qp_offset=-3 / threads=48 / sliced_threads=0 / nr=0 / decimate=1 / interlaced=0 / bluray_compat=0 / constrained_intra=0 / bframes=3 / b_pyramid=2 / b_adapt=2 / b_bias=0 / direct=3 / weightb=1 / open_gop=0 / weightp=2 / keyint=250 / keyint_min=23 / scenecut=40 / intra_refresh=0 / rc_lookahead=60 / rc=2pass / mbtree=1 / bitrate=2097 / ratetol=1.0 / qcomp=0.60 / qpmin=0 / qpmax=69 / qpstep=4 / cplxblur=20.0 / qblur=0.5 / vbv_maxrate=31250 / vbv_bufsize=31250 / nal_hrd=none / ip_ratio=1.40 / aq=1:1.00
Default                                  : Yes
Forced                                   : No
Color range                              : Limited
Color primaries                          : BT.709
Matrix coefficients                      : BT.709

Audio #1
ID                                       : 2
Format                                   : AC-3
Format/Info                              : Audio Coding 3
Commercial name                          : Dolby Digital
Codec ID                                 : A_AC3
Duration                                 : 2 h 0 min
Bit rate mode                            : Constant
Bit rate                                 : 192 kb/s
Channel(s)                               : 2 channels
Channel layout                           : L R
Sampling rate                            : 48.0 kHz
Frame rate                               : 31.250 FPS (1536 SPF)
Compression mode                         : Lossy
Stream size                              : 165 MiB (8%)
Title                                    : Türkçe - Filmbol.org
Language                                 : Turkish
Service kind                             : Complete Main
Default                                  : Yes
Forced                                   : No

Audio #2
ID                                       : 3
Format                                   : AAC LC
Format/Info                              : Advanced Audio Codec Low Complexity
Codec ID                                 : A_AAC-2
Duration                                 : 2 h 0 min
Bit rate                                 : 93.7 kb/s
Channel(s)                               : 2 channels
Channel layout                           : L R
Sampling rate                            : 48.0 kHz
Frame rate                               : 46.875 FPS (1024 SPF)
Compression mode                         : Lossy
Stream size                              : 80.7 MiB (4%)
Title                                    : Orjinal Dil - Filmbol.org
Language                                 : English
Default                                  : No
Forced                                   : No

Text
ID                                       : 4
Format                                   : UTF-8
Codec ID                                 : S_TEXT/UTF8
Codec ID/Info                            : UTF-8 Plain Text
Duration                                 : 1 h 52 min
Bit rate                                 : 28 b/s
Count of elements                        : 616
Stream size                              : 23.2 KiB (0%)
Title                                    : Türkçe - Filmbol.org
Language                                 : Turkish
Default                                  : No
Forced                                   : No

Film Detayları


 Mad Max: Öfkeli Yollar

 Mad Max: Öfkeli Yollar

 Mad Max: Öfkeli Yollar


Film Fragmanı


Film Detayları

Uptobox ile indir

1Fichier ile indir

1Fichier'den İndiremiyor musun? Tıklayın!


Mega linki şuan da gizli. Kullanıma açmak için konuya yorum yapın ve ardından sayfayı yenileyin.

Mega


Bunun için üzgünüz ancak, bu linke sadece premium üyeler erişebilir.

Filmbol Cloud





Şuan Offine!
Şuan Offine!
ııshelbyıı Uzman Üye
**
Uzman Üye

  • Konular0
  • Mesajlar14
  • Rep puanı 0
seni yerim
Şuan Online!
Şuan Online!
BroserBros Kurucu Admin
*******
Admin

10.12.2019 Güncelleme Notu:

Linkler yenilendi. Kırık linkler kaldırıldı ve Genel Konu Düzenlemesi Yapıldı
Şuan Offine!
Şuan Offine!
mksd1008 Yeni Üye
*
Üye

  • Konular0
  • Mesajlar2
  • Rep puanı 0
teşekkürler
Şuan Offine!
Şuan Offine!
kurucay1984 Uzman Üye
**
Uzman Üye

  • Konular0
  • Mesajlar11
  • Rep puanı 0
Teşekkürler
Şuan Offine!
Şuan Offine!
ahkna Süper Üye
***
Super Üye

  • Konular0
  • Mesajlar36
  • Rep puanı 0
Teşekkürler...
Şuan Offine!
Şuan Offine!
ismail1231 Yeni Üye
*
Üye

  • Konular0
  • Mesajlar1
  • Rep puanı 0
dasdasada    çok güzel
Şuan Offine!
Şuan Offine!
murassai Uzman Üye
**
Uzman Üye

  • Konular0
  • Mesajlar13
  • Rep puanı 0
sıkı film
Şuan Offine!
Şuan Offine!
ahmettuncr Süper Üye
***
Super Üye

  • Konular0
  • Mesajlar26
  • Rep puanı 0
merhaba
Şuan Online!
Şuan Online!
Ugur_1988 Premium Üye
****

  • Konular5
  • Mesajlar73
  • Rep puanı 23
10 numara film


Hızlı Menü: