Filmbol Forum Film İndir 1080P v Örümcek Adam: Evden Uzakta (Spider-Man: Far from Home) Türkçe Dublaj 1080P İndir
Mega linklerinin şikayet edilmemesi için global erişime kapatıp sadece yorum yapanlara açıyoruz. Bu linkleri gizleme işlemini mecburen yapıyoruz ve yorum yapmanızın siteye değil size faydası vardır. Teşekürler yazmayı çok görüp, Random/Spam mesajlar atarak Mega linklerini açmaya çalışan kullanıcılara önce süresiz ban, devam ederse IP ban atacağız.
Filmbol'da moderatör olmak ister misiniz? Bizimle iletişime geçmek için tıklayın!
Örümcek Adam: Evden Uzakta (Spider-Man: Far from Home) Türkçe Dublaj 1080P İndir
BroserBros
Örümcek Adam: Evden Uzakta (Spider-Man: Far from Home) Türkçe Dublaj 1080P İndir
59
5311
  • Derecelendirme: 5/5 - 1 oy
  • 1
  • 2
  • 3
  • 4
  • 5
Konuyu Okuyanlar:2 Ziyaretçi
Şuan Online!
Filmin Yayınlanma Tarihi: 2019 
WWW
Şuan Online!
BroserBros Kurucu Admin
*******
Admin





Ses Kodek: AC3


Audio Coding 3 (AC3)






Spider Man Evden Uzakta



Teknik Detaylar


Kod :
General
Complete name                            : Spider-Man.Evden.Uzakta.2019.m1080p.BluRay.x264.TR.Filmbol.mkv
Format                                   : Matroska
Format version                           : Version 4 / Version 2
File size                                : 2.25 GiB
Duration                                 : 2h 9mn
Overall bit rate                         : 2 485 Kbps
Movie name                               : Spider Man - Evden Uzakta (2019) - Filmbol.org
Encoded date                             : UTC 2019-10-02 15:17:24
Writing application                      : mkvmerge v35.0.0 ('All The Love In The World') 64-bit
Writing library                          : libebml v1.3.9 + libmatroska v1.5.2

Video
ID                                       : 1
Format                                   : AVC
Format/Info                              : Advanced Video Codec
Format profile                           : [email protected]
Format settings, CABAC                   : Yes
Format settings, ReFrames                : 4 frames
Codec ID                                 : V_MPEG4/ISO/AVC
Duration                                 : 2h 9mn
Bit rate                                 : 2 100 Kbps
Width                                    : 1 920 pixels
Height                                   : 800 pixels
Display aspect ratio                     : 2.40:1
Frame rate mode                          : Constant
Frame rate                               : 23.976 (24000/1001) fps
Color space                              : YUV
Chroma subsampling                       : 4:2:0
Bit depth                                : 8 bits
Scan type                                : Progressive
Bits/(Pixel*Frame)                       : 0.057
Stream size                              : 1.90 GiB (84%)
Title                                    : 1080P - Filmbol.org
Writing library                          : x264 core 152
Default                                  : Yes
Forced                                   : No

Audio
ID                                       : 2
Format                                   : AC-3
Format/Info                              : Audio Coding 3
Mode extension                           : CM (complete main)
Format settings, Endianness              : Big
Codec ID                                 : A_AC3
Duration                                 : 2h 9mn
Bit rate mode                            : Constant
Bit rate                                 : 384 Kbps
Channel(s)                               : 6 channels
Channel positions                        : Front: L C R, Side: L R, LFE
Sampling rate                            : 48.0 KHz
Frame rate                               : 31.250 fps (1536 spf)
Compression mode                         : Lossy
Stream size                              : 355 MiB (15%)
Title                                    : Türkçe - Filmbol.org
Language                                 : Turkish
Default                                  : Yes
Forced                                   : No


Film Detayları


Spider Man Evden Uzakta

Spider Man Evden Uzakta

Spider Man Evden Uzakta


Film Fragmanı


Film Detayları

Mini 1080P İndir


Uptobox ile indir

Mega linki şuan da gizli. Kullanıma açmak için konuya yorum yapın ve ardından sayfayı yenileyin.

Mega


MediaFire ile indir

Google Drive linki şuan da gizli. Kullanıma açmak için konuya yorum yapın ve ardından sayfayı yenileyin.

Google Drive

Şuan Offine!
Şuan Offine!
Aspirin46 Süper Üye
***
Super Üye

  • Konular0
  • Mesajlar57
  • Rep puanı 0
[quote='BroserBros' pid='1888' dateline='1570118017']

[/quote]
Şuan Offine!
Şuan Offine!
ahmetyee1 Süper Üye
***
Super Üye

  • Konular3
  • Mesajlar59
  • Rep puanı 0
evet iyi
Şuan Offine!
Şuan Offine!
tugrul41 Yeni Üye
*
Üye

  • Konular0
  • Mesajlar1
  • Rep puanı 0
Çok teşekkürler
Şuan Offine!
Şuan Offine!
Marcavesto Yeni Üye
*
Üye

  • Konular0
  • Mesajlar1
  • Rep puanı 0
Teşekkürler
Şuan Offine!
Şuan Offine!
Rtb Yeni Üye
*
Üye

  • Konular0
  • Mesajlar2
  • Rep puanı 0
inşallah güzel filmdir
Şuan Offine!
Şuan Offine!
2820utku Yeni Üye
*
Üye

  • Konular0
  • Mesajlar5
  • Rep puanı 0
mükemmel
Şuan Offine!
Şuan Offine!
Hellenger28 Uzman Üye
**
Uzman Üye

  • Konular0
  • Mesajlar15
  • Rep puanı 0
Harika film Wink
Şuan Offine!
Şuan Offine!
leopar110 Yeni Üye
*
Üye

  • Konular0
  • Mesajlar5
  • Rep puanı 0
teşekkürler.
Şuan Offine!
Şuan Offine!
Rustu_1905 Uzman Üye
**
Uzman Üye

  • Konular0
  • Mesajlar14
  • Rep puanı 0
çok güzel olmuş


Konu ile Alakalı Benzer Konular
Konular Yazar Yorumlar Okunma Son Yorum
Filmin Yayınlanma Tarihi: 2021
Yıldırım Gücü (Thunder Force) - 2021 - TR+ORG - 1080P | tt10121392 TheSteeL 0 6 6 saat önce
Son Yorum: TheSteeL
Filmin Yayınlanma Tarihi: 2020
Kadaver (Cadaver) - 2020 - TR+ORG - 1080P BroserBros 2 116 8 saat önce
Son Yorum: ömerk
Filmin Yayınlanma Tarihi: 2019
47 Metre Derinde: Kafes (47 Meters Down: Uncaged) - 2019 - TR+ORG - 1080P BroserBros 2 128 8 saat önce
Son Yorum: ömerk
Filmin Yayınlanma Tarihi: 2016
Jack Reacher: Asla Geri Dönme (J.R: Never Go Back) Türkçe Dublaj m1080P İndir BroserBros 6 2,301 8 saat önce
Son Yorum: Erenio0
Filmin Yayınlanma Tarihi: 2004
Shrek 2 (Şrek 2) - 2004 - TR+ORG - 1080P BroserBros 3 277 9 saat önce
Son Yorum: Ardacngz

Hızlı Menü: