Filmbol Forum Film İndir BRRip XviD v Örümcek Adam: Evden Uzakta (Spider-Man: Far from Home) Türkçe Dublaj Brrip Xvid İndir
Mega linklerinin şikayet edilmemesi için global erişime kapatıp sadece yorum yapanlara açıyoruz. Bu linkleri gizleme işlemini mecburen yapıyoruz ve yorum yapmanızın siteye değil size faydası vardır. Teşekürler yazmayı çok görüp, Random/Spam mesajlar atarak Mega linklerini açmaya çalışan kullanıcılara önce süresiz ban, devam ederse IP ban atacağız.
Filmbol'da moderatör olmak ister misiniz? Bizimle iletişime geçmek için tıklayın!
Örümcek Adam: Evden Uzakta (Spider-Man: Far from Home) Türkçe Dublaj Brrip Xvid İndir
BroserBros
Örümcek Adam: Evden Uzakta (Spider-Man: Far from Home) Türkçe Dublaj Brrip Xvid İndir
12
1958
  • Derecelendirme: 0/5 - 0 oy
  • 1
  • 2
  • 3
  • 4
  • 5
Konuyu Okuyanlar:1 Ziyaretçi
Şuan Online!
Filmin Yayınlanma Tarihi: 2019 
WWW
Şuan Online!
BroserBros Kurucu Admin
*******
Admin










Spider Man Evden Uzakta



Teknik Detaylar


Kod :
General
Complete name                            : Spider-Man.Evden.Uzakta.2019.BRRip.XviD.TR.avi
Format                                   : AVI
Format/Info                              : Audio Video Interleave
File size                                : 1.57 GiB
Duration                                 : 2h 9mn
Overall bit rate                         : 1 738 Kbps

Video
ID                                       : 0
Format                                   : MPEG-4 Visual
Format profile                           : [email protected]
Format settings, BVOP                    : No
Format settings, QPel                    : No
Format settings, GMC                     : No warppoints
Format settings, Matrix                  : Default (H.263)
Codec ID                                 : XVID
Codec ID/Hint                            : XviD
Duration                                 : 2h 9mn
Bit rate                                 : 1 597 Kbps
Width                                    : 720 pixels
Height                                   : 304 pixels
Display aspect ratio                     : 2.40:1
Frame rate                               : 23.976 fps
Color space                              : YUV
Chroma subsampling                       : 4:2:0
Bit depth                                : 8 bits
Scan type                                : Progressive
Compression mode                         : Lossy
Bits/(Pixel*Frame)                       : 0.304
Stream size                              : 1.44 GiB (92%)
Writing library                          : Lavc58.35.100

Audio
ID                                       : 1
Format                                   : MPEG Audio
Format version                           : Version 1
Format profile                           : Layer 3
Mode                                     : Joint stereo
Mode extension                           : MS Stereo
Codec ID                                 : 55
Codec ID/Hint                            : MP3
Duration                                 : 2h 9mn
Bit rate mode                            : Constant
Bit rate                                 : 128 Kbps
Channel(s)                               : 2 channels
Sampling rate                            : 48.0 KHz
Compression mode                         : Lossy
Stream size                              : 118 MiB (7%)
Alignment                                : Aligned on interleaves
Interleave, duration                     : 24 ms (0.58 video frame)


Film Detayları


Spider Man Evden Uzakta

Spider Man Evden Uzakta

Spider Man Evden Uzakta


Film Fragmanı


Film Detayları

Brrip İndir


Uptobox ile indir

Mega linki şuan da gizli. Kullanıma açmak için konuya yorum yapın ve ardından sayfayı yenileyin.

Mega


MediaFire ile indir

Şuan Offine!
Şuan Offine!
İSMAİL Yeni Üye
*
Üye

  • Konular0
  • Mesajlar4
  • Rep puanı 0
BEKLEDİĞİM BİR FİLMDİ TEŞEKKÜRLER
Şuan Offine!
Şuan Offine!
gece_yagmuru Uzman Üye
**
Uzman Üye

  • Konular0
  • Mesajlar12
  • Rep puanı 0
BEKLEDİĞİM BİR FİLMDİ TEŞEKKÜRLER
Şuan Offine!
Şuan Offine!
leopar110 Yeni Üye
*
Üye

  • Konular0
  • Mesajlar5
  • Rep puanı 0
tesekkürler.
Şuan Offine!
Şuan Offine!
komador06 Süper Üye
***
Super Üye

  • Konular0
  • Mesajlar28
  • Rep puanı 0
Teşekkürler.
Şuan Offine!
Şuan Offine!
efsanem Uzman Üye
**
Uzman Üye

  • Konular0
  • Mesajlar8
  • Rep puanı 0
Teşekkürler.
Şuan Offine!
Şuan Offine!
Ali.ozdemir.46 Yeni Üye
*
Üye

  • Konular0
  • Mesajlar5
  • Rep puanı 0
niceeeee
Şuan Offine!
Şuan Offine!
DeathLight Yeni Üye
*
Üye

  • Konular0
  • Mesajlar2
  • Rep puanı 0
on numara
Şuan Offine!
Şuan Offine!
cemsav97 Süper Üye
***
Super Üye

  • Konular0
  • Mesajlar60
  • Rep puanı 2
Teşekkürler
Şuan Offine!
Şuan Offine!
readerss Uzman Üye
**
Uzman Üye

  • Konular0
  • Mesajlar8
  • Rep puanı 0
goodgood


Konu ile Alakalı Benzer Konular
Konular Yazar Yorumlar Okunma Son Yorum
Filmin Yayınlanma Tarihi: 2021
Donma Noktası (Below Zero) - 2021 - TR - BRRip XviD TheSteeL 4 92 11 saat önce
Son Yorum: TheSteeL
Filmin Yayınlanma Tarihi: 2015
Yeni Ahit (Le tout nouveau testament) - 2015 - TR - BRRip XviD | tt3792960 TheSteeL 0 8 , Saat: 23:51
Son Yorum: TheSteeL
Filmin Yayınlanma Tarihi: 2015
Diriliş (The Revenant) - 2015 - TR - BRRip XviD | tt1663202 BroserBros 4 3,531 , Saat: 19:42
Son Yorum: BroserBros
Filmin Yayınlanma Tarihi: 2018
Adalet 2 (The Equalizer 2) - 2018 - TR - BRRip XviD | tt3766354 BroserBros 4 933 , Saat: 19:30
Son Yorum: BroserBros
Filmin Yayınlanma Tarihi: 2019
Aslan Kral (The Lion King) - 2019 - TR - BRRip XviD | tt6105098 BroserBros 10 2,195 , Saat: 19:18
Son Yorum: BroserBros

Hızlı Menü: