⤤ Premium'a Yükselt
Filmbol Forum Film İndir BRRip XviD v John Wick 2 (John Wick: Chapter 2) - 2017 - TR - BRRip XviD | tt4425200

Filmbol TV kullanıma açıldı. Bu adresten giriş yapabilirsin: Giriş





John Wick 2 (John Wick: Chapter 2) - 2017 - TR - BRRip XviD | tt4425200
BroserBros
John Wick 2 (John Wick: Chapter 2) - 2017 - TR - BRRip XviD | tt4425200
6
1432
  • Derecelendirme: 0/5 - 0 oy
  • 1
  • 2
  • 3
  • 4
  • 5
Konuyu Okuyanlar:1 Ziyaretçi
Şuan Online!
Filmin Yayınlanma Tarihi: 2017 
WWW
Rapor Et!
Şuan Online!
BroserBros Kurucu Admin
*******
Admin



 John Wick 2



Emekliye ayrılmış olan John Wick can yoldaşı köpeğiyle sakin bir hayat sürmektedir. Ancak başına gelen kimi olaylar onu bir kez daha suç dünyasına iter. Bu kez bu uğurda Roma sokaklarını arşınlaması gerekecektir…
Başarılı aksiyon filmi John Wick’in devam filmi olacak John Wick’in yönetmen koltuğunda Chad Stahelski oturuyor. Filmin başrolünde yine Keanu Reeves’i izleyeceğiz. Filmin kadrosunda Ruby Rose, Bridget Moynahan, Ian McShane, Peter Stormare, Laurence Fishburne, John Leguizamo ve Common gibi isimler de yer alıyor.

John Wick 2 (2017) (John Wick: Chapter 2) | tt4425200 Filmi Imdb'den 380,000 kişi tarafından oylandı ve 7,5 puan aldı. Bu film için editör puanı %81 olarak belirlendi. İyi Seyirler!

Teknik Detaylar

Kod :
General
Unique ID                                : 137046533718505462133036590009132648717 (0x671A33CA58668281359C4481A562090D)
Complete name                            : /home/BroserBros/Desktop/1/John.Wi.2.2017.BRRip.XviD.TR.Filmbol.avi
Format                                   : Matroska
Format version                           : Version 4
File size                                : 1.48 GiB
Duration                                 : 2 h 2 min
Overall bit rate                         : 1 727 kb/s
Movie name                               : John Wick Chapter 2 - 2017 | Filmbol.org
Encoded date                             : UTC 2021-04-02 16:59:01
Writing application                      : mkvmerge v53.0.0 ('Fool's Gold') 64-bit
Writing library                          : libebml v1.4.1 + libmatroska v1.6.2
FileExtension_Invalid                    : mkv mk3d mka mks

Video
ID                                       : 1
Format                                   : MPEG-4 Visual
Format profile                           : [email protected]
Format settings, BVOP                    : No
Format settings, QPel                    : No
Format settings, GMC                     : No warppoints
Format settings, Matrix                  : Default (H.263)
Codec ID                                 : V_MS/VFW/FOURCC / XVID
Codec ID/Hint                            : XviD
Duration                                 : 2 h 2 min
Bit rate                                 : 1 597 kb/s
Width                                    : 720 pixels
Height                                   : 302 pixels
Display aspect ratio                     : 2.40:1
Original display aspect ratio            : 2.40:1
Frame rate mode                          : Constant
Frame rate                               : 23.976 FPS
Color space                              : YUV
Chroma subsampling                       : 4:2:0
Bit depth                                : 8 bits
Scan type                                : Progressive
Compression mode                         : Lossy
Bits/(Pixel*Frame)                       : 0.306
Stream size                              : 1.37 GiB (92%)
Title                                    : John Wick Chapter 2 - 2017 | Filmbol.org
Writing library                          : Lavc56.60.100
Default                                  : Yes
Forced                                   : No

Audio
ID                                       : 2
Format                                   : MPEG Audio
Format version                           : Version 1
Format profile                           : Layer 3
Codec ID                                 : A_MPEG/L3
Codec ID/Hint                            : MP3
Duration                                 : 2 h 2 min
Bit rate mode                            : Constant
Bit rate                                 : 128 kb/s
Channel(s)                               : 2 channels
Sampling rate                            : 44.1 kHz
Frame rate                               : 38.281 FPS (1152 SPF)
Compression mode                         : Lossy
Stream size                              : 112 MiB (7%)
Title                                    : John Wick Chapter 2 - 2017 | Filmbol.org
Default                                  : Yes
Forced                                   : No

Film Detayları


 John Wick 2

 John Wick 2

 John Wick 2


Film Fragmanı


Film İndir


Rar Şifresi: filmbol.org



Uptobox ile indir

1Fichier ile indir

1Fichier'den İndiremiyor musun? Tıklayın!












Şuan Offine!
Rapor Et!
Şuan Offine!
ufukus Üye
*
Üye
  • Konular0
  • Mesajlar3
  • Rep puanı 0
Emeğinize sağlık
Şuan Offine!
Rapor Et!
Şuan Offine!
BlackWhite Uzman Üye
**
Uzman Üye
  • Konular0
  • Mesajlar7
  • Rep puanı 0
Şuan Offine!
Rapor Et!
Şuan Offine!
schoby Üye
*
Üye
  • Konular0
  • Mesajlar2
  • Rep puanı 0
Emeğe saygı
Şuan Offine!
Rapor Et!
Şuan Offine!
tayyib5731 Uzman Üye
**
Uzman Üye
  • Konular1
  • Mesajlar45
  • Rep puanı 0
güzel film
Şuan Offine!
Rapor Et!
Şuan Offine!
kaos37 Üye
*
Üye
  • Konular0
  • Mesajlar1
  • Rep puanı 0
güzel
Şuan Online!
Rapor Et!
Şuan Online!
BroserBros Kurucu Admin
*******
Admin
03.04.2021 Yönetici Notu:

Kırık linkler kontrol edildi, kaldırıldı ve yenilendi. Tüm linkler tamamen çalışır durumda.


Hızlı Menü: