⤤ Premium'a Yükselt
Filmbol Forum Film İndir 720P v John Wick 2 (John Wick: Chapter 2) - 2017 - TR+ORG - 720P | tt4425200

Filmbol TV kullanıma açıldı. Bu adresten giriş yapabilirsin: Giriş





John Wick 2 (John Wick: Chapter 2) - 2017 - TR+ORG - 720P | tt4425200
BroserBros
John Wick 2 (John Wick: Chapter 2) - 2017 - TR+ORG - 720P | tt4425200
20
2281
  • Derecelendirme: 0/5 - 0 oy
  • 1
  • 2
  • 3
  • 4
  • 5
Konuyu Okuyanlar:2 Ziyaretçi
Şuan Online!
Filmin Yayınlanma Tarihi: 2017 
WWW
Rapor Et!
Şuan Online!
BroserBros Kurucu Admin
*******
Admin



 John Wick 2



Emekliye ayrılmış olan John Wick can yoldaşı köpeğiyle sakin bir hayat sürmektedir. Ancak başına gelen kimi olaylar onu bir kez daha suç dünyasına iter. Bu kez bu uğurda Roma sokaklarını arşınlaması gerekecektir…
Başarılı aksiyon filmi John Wick’in devam filmi olacak John Wick’in yönetmen koltuğunda Chad Stahelski oturuyor. Filmin başrolünde yine Keanu Reeves’i izleyeceğiz. Filmin kadrosunda Ruby Rose, Bridget Moynahan, Ian McShane, Peter Stormare, Laurence Fishburne, John Leguizamo ve Common gibi isimler de yer alıyor.

John Wick 2 (2017) (John Wick: Chapter 2) | tt4425200 Filmi Imdb'den 380,000 kişi tarafından oylandı ve 7,5 puan aldı. Bu film için editör puanı %81 olarak belirlendi. İyi Seyirler!

Teknik Detaylar

Kod :
General
Unique ID                                : 27063296717068961861270461731947267250 (0x145C338BF1A1725FF0448C3A6001C4B2)
Complete name                            : /home/BroserBros/Desktop/1/John.Wi.2.2017.720p.BluRay.x264.TR.ENG.Filmbol.mkv
Format                                   : Matroska
Format version                           : Version 4
File size                                : 1.43 GiB
Duration                                 : 2 h 2 min
Overall bit rate                         : 1 675 kb/s
Movie name                               : John Wick Chapter 2 - 2017 | Filmbol.org
Encoded date                             : UTC 2021-03-31 12:34:54
Writing application                      : mkvmerge v53.0.0 ('Fool's Gold') 64-bit
Writing library                          : libebml v1.4.1 + libmatroska v1.6.2

Video
ID                                       : 1
Format                                   : AVC
Format/Info                              : Advanced Video Codec
Format profile                           : [email protected]
Format settings                          : CABAC / 4 Ref Frames
Format settings, CABAC                   : Yes
Format settings, Reference frames        : 4 frames
Codec ID                                 : V_MPEG4/ISO/AVC
Duration                                 : 2 h 2 min
Bit rate                                 : 900 kb/s
Width                                    : 1 280 pixels
Height                                   : 534 pixels
Display aspect ratio                     : 2.40:1
Original display aspect ratio            : 2.40:1
Frame rate mode                          : Constant
Frame rate                               : 23.976 (24000/1001) FPS
Color space                              : YUV
Chroma subsampling                       : 4:2:0
Bit depth                                : 8 bits
Scan type                                : Progressive
Bits/(Pixel*Frame)                       : 0.055
Stream size                              : 788 MiB (54%)
Title                                    : 720P - Filmbol.org
Writing library                          : x264 core 148
Encoding settings                        : cabac=1 / ref=4 / deblock=1:-1:-1 / analyse=0x3:0x133 / me=umh / subme=9 / psy=1 / psy_rd=1.00:0.15 / mixed_ref=1 / me_range=24 / chroma_me=1 / trellis=2 / 8x8dct=1 / cqm=0 / deadzone=21,11 / fast_pskip=0 / chroma_qp_offset=-3 / threads=12 / lookahead_threads=1 / sliced_threads=0 / nr=0 / decimate=1 / interlaced=0 / bluray_compat=0 / constrained_intra=0 / bframes=3 / b_pyramid=2 / b_adapt=2 / b_bias=0 / direct=3 / weightb=1 / open_gop=0 / weightp=2 / keyint=250 / keyint_min=23 / scenecut=40 / intra_refresh=0 / rc_lookahead=60 / rc=2pass / mbtree=1 / bitrate=900 / ratetol=1.0 / qcomp=0.60 / qpmin=0 / qpmax=69 / qpstep=4 / cplxblur=20.0 / qblur=0.5 / vbv_maxrate=31250 / vbv_bufsize=31250 / nal_hrd=none / filler=0 / ip_ratio=1.40 / aq=1:1.00
Default                                  : Yes
Forced                                   : No

Audio #1
ID                                       : 2
Format                                   : AC-3
Format/Info                              : Audio Coding 3
Commercial name                          : Dolby Digital
Codec ID                                 : A_AC3
Duration                                 : 2 h 2 min
Bit rate mode                            : Constant
Bit rate                                 : 640 kb/s
Channel(s)                               : 6 channels
Channel layout                           : L R C LFE Ls Rs
Sampling rate                            : 48.0 kHz
Frame rate                               : 31.250 FPS (1536 SPF)
Compression mode                         : Lossy
Delay relative to video                  : -35 ms
Stream size                              : 560 MiB (38%)
Title                                    : Türkçe - Filmbol.org
Language                                 : Turkish
Service kind                             : Complete Main
Default                                  : Yes
Forced                                   : No

Audio #2
ID                                       : 3
Format                                   : AAC LC
Format/Info                              : Advanced Audio Codec Low Complexity
Codec ID                                 : A_AAC-2
Duration                                 : 2 h 2 min
Bit rate                                 : 132 kb/s
Channel(s)                               : 2 channels
Channel layout                           : L R
Sampling rate                            : 48.0 kHz
Frame rate                               : 46.875 FPS (1024 SPF)
Compression mode                         : Lossy
Delay relative to video                  : -43 ms
Stream size                              : 116 MiB (8%)
Title                                    : Orjinal Dil - Filmbol.org
Language                                 : English
Default                                  : No
Forced                                   : No

Text
ID                                       : 4
Format                                   : UTF-8
Codec ID                                 : S_TEXT/UTF8
Codec ID/Info                            : UTF-8 Plain Text
Duration                                 : 1 h 51 min
Bit rate                                 : 24 b/s
Count of elements                        : 622
Stream size                              : 19.9 KiB (0%)
Title                                    : Türkçe - Filmbol.org
Language                                 : Turkish
Default                                  : Yes
Forced                                   : No

Film Detayları


 John Wick 2

 John Wick 2

 John Wick 2


Film Fragmanı


Film İndir


Rar Şifresi: filmbol.org


Uptobox ile indir

1Fichier ile indir

1Fichier'den İndiremiyor musun? Tıklayın!












Şuan Offine!
Rapor Et!
Şuan Offine!
back-ir Süper Üye
***
Super Üye
  • Konular0
  • Mesajlar28
  • Rep puanı 1
Seriye devam, olay sadece bir köpek değildir!
Şuan Offine!
Rapor Et!
Şuan Offine!
firatcan141 Cezalı Üye
  • Konular0
  • Mesajlar17
hfdfff
Şuan Offine!
Rapor Et!
Şuan Offine!
yunuser34 Uzman Üye
**
Uzman Üye
  • Konular0
  • Mesajlar15
  • Rep puanı 0
Adam king laaa
Şuan Offine!
Rapor Et!
Şuan Offine!
kadirhan83 Uzman Üye
**
Uzman Üye
  • Konular0
  • Mesajlar14
  • Rep puanı 0
teşekkürler
Şuan Offine!
Rapor Et!
Şuan Offine!
kadirhan83 Uzman Üye
**
Uzman Üye
  • Konular0
  • Mesajlar14
  • Rep puanı 0
teşekkürler
Şuan Offine!
Rapor Et!
Şuan Offine!
skyzindan Üye
*
Üye
  • Konular0
  • Mesajlar2
  • Rep puanı 0
nice babe
Şuan Offine!
Rapor Et!
Şuan Offine!
evenstar Uzman Üye
**
Uzman Üye
  • Konular0
  • Mesajlar22
  • Rep puanı 0
teşekkürler
Şuan Offine!
Rapor Et!
Şuan Offine!
ondes6060 Uzman Üye
**
Uzman Üye
  • Konular0
  • Mesajlar10
  • Rep puanı 0
güzel film tavsiye ederim
Şuan Offine!
Rapor Et!
Şuan Offine!
draydinozkan Süper Üye
***
Super Üye
  • Konular0
  • Mesajlar47
  • Rep puanı 0
teşekkürler


Hızlı Menü: