Filmbol Forum Film İndir 1080P v Senden Önce Ben (Me Before You) - 2016 - TR+ORG - 1080P | tt2674426
Mega linklerinin şikayet edilmemesi için global erişime kapatıp sadece yorum yapanlara açıyoruz. Bu linkleri gizleme işlemini mecburen yapıyoruz ve yorum yapmanızın siteye değil size faydası vardır. Teşekürler yazmayı çok görüp, Random/Spam mesajlar atarak Mega linklerini açmaya çalışan kullanıcılara önce süresiz ban, devam ederse IP ban atacağız.
Filmbol'da moderatör olmak ister misiniz? Bizimle iletişime geçmek için tıklayın!
Senden Önce Ben (Me Before You) - 2016 - TR+ORG - 1080P | tt2674426
BroserBros
Senden Önce Ben (Me Before You) - 2016 - TR+ORG - 1080P | tt2674426
3
3075
  • Derecelendirme: 0/5 - 0 oy
  • 1
  • 2
  • 3
  • 4
  • 5
Konuyu Okuyanlar:1 Ziyaretçi
Şuan Online!
Filmin Yayınlanma Tarihi: 2016 
WWW
Şuan Online!
BroserBros Kurucu Admin
*******
Admin



 Senden Önce Ben



Küçük bir kasabada yaşayan bir kız, felç geçiren bir adama bakıcı olarak işe başlar. Ancak bağları sadece bakıcı ve patron olarak değil, daha samimi ilerleyecektir.

Senden Önce Ben (2016) (Me Before You) | tt2674426 Filmi Imdb'den 215,000 kişi tarafından oylandı ve 7,4 puan aldı. Bu film için editör puanı %83 olarak belirlendi. İyi Seyirler!

Teknik Detaylar

Kod :
General
Unique ID                                : 195383684487727230737872050252455053460 (0x92FD87635DD1B3B30D7335CB0D838894)
Complete name                            : /home/BroserBros/Desktop/3/Senden.Önce.Ben.2016.1080p.BluRay.x264.TR.ENG.Filmbol.mkv
Format                                   : Matroska
Format version                           : Version 4
File size                                : 1.82 GiB
Duration                                 : 1 h 50 min
Overall bit rate                         : 2 362 kb/s
Movie name                               : Senden Önce Ben - Me Before You - 2016 | Filmbol.org
Encoded date                             : UTC 2021-04-01 14:25:01
Writing application                      : mkvmerge v53.0.0 ('Fool's Gold') 64-bit
Writing library                          : libebml v1.4.1 + libmatroska v1.6.2

Video
ID                                       : 1
Format                                   : AVC
Format/Info                              : Advanced Video Codec
Format profile                           : [email protected]
Format settings                          : CABAC / 4 Ref Frames
Format settings, CABAC                   : Yes
Format settings, Reference frames        : 4 frames
Codec ID                                 : V_MPEG4/ISO/AVC
Duration                                 : 1 h 50 min
Bit rate                                 : 2 050 kb/s
Width                                    : 1 920 pixels
Height                                   : 800 pixels
Display aspect ratio                     : 2.40:1
Frame rate mode                          : Constant
Frame rate                               : 23.976 (24000/1001) FPS
Color space                              : YUV
Chroma subsampling                       : 4:2:0
Bit depth                                : 8 bits
Scan type                                : Progressive
Bits/(Pixel*Frame)                       : 0.056
Stream size                              : 1.58 GiB (87%)
Title                                    : 1080P - Filmbol.org
Writing library                          : x264 core 148
Encoding settings                        : cabac=1 / ref=4 / deblock=1:-1:-1 / analyse=0x3:0x133 / me=umh / subme=9 / psy=1 / psy_rd=1.00:0.15 / mixed_ref=1 / me_range=24 / chroma_me=1 / trellis=2 / 8x8dct=1 / cqm=0 / deadzone=21,11 / fast_pskip=0 / chroma_qp_offset=-3 / threads=12 / lookahead_threads=1 / sliced_threads=0 / nr=0 / decimate=1 / interlaced=0 / bluray_compat=0 / constrained_intra=0 / bframes=3 / b_pyramid=2 / b_adapt=2 / b_bias=0 / direct=3 / weightb=1 / open_gop=0 / weightp=2 / keyint=250 / keyint_min=23 / scenecut=40 / intra_refresh=0 / rc_lookahead=60 / rc=2pass / mbtree=1 / bitrate=2050 / ratetol=1.0 / qcomp=0.60 / qpmin=0 / qpmax=69 / qpstep=4 / cplxblur=20.0 / qblur=0.5 / vbv_maxrate=31250 / vbv_bufsize=31250 / nal_hrd=none / filler=0 / ip_ratio=1.40 / aq=1:1.00
Default                                  : Yes
Forced                                   : No

Audio #1
ID                                       : 2
Format                                   : AC-3
Format/Info                              : Audio Coding 3
Commercial name                          : Dolby Digital
Codec ID                                 : A_AC3
Duration                                 : 1 h 50 min
Bit rate mode                            : Constant
Bit rate                                 : 192 kb/s
Channel(s)                               : 2 channels
Channel layout                           : L R
Sampling rate                            : 44.1 kHz
Frame rate                               : 28.711 FPS (1536 SPF)
Compression mode                         : Lossy
Stream size                              : 151 MiB (8%)
Title                                    : Türkçe - Filmbol.org
Language                                 : Turkish
Service kind                             : Complete Main
Default                                  : Yes
Forced                                   : No

Audio #2
ID                                       : 3
Format                                   : AAC LC
Format/Info                              : Advanced Audio Codec Low Complexity
Codec ID                                 : A_AAC-2
Duration                                 : 1 h 50 min
Bit rate                                 : 117 kb/s
Channel(s)                               : 2 channels
Channel layout                           : L R
Sampling rate                            : 48.0 kHz
Frame rate                               : 46.875 FPS (1024 SPF)
Compression mode                         : Lossy
Stream size                              : 92.5 MiB (5%)
Title                                    : Orjinal Dil - Filmbol.org
Language                                 : English
Default                                  : No
Forced                                   : No

Text #1
ID                                       : 4
Format                                   : UTF-8
Codec ID                                 : S_TEXT/UTF8
Codec ID/Info                            : UTF-8 Plain Text
Duration                                 : 1 h 45 min
Bit rate                                 : 67 b/s
Count of elements                        : 1315
Stream size                              : 51.8 KiB (0%)
Title                                    : Türkçe - Filmbol.org
Language                                 : Turkish
Default                                  : No
Forced                                   : No

Text #2
ID                                       : 5
Format                                   : PGS
Muxing mode                              : zlib
Codec ID                                 : S_HDMV/PGS
Codec ID/Info                            : Picture based subtitle format used on BDs/HD-DVDs
Duration                                 : 1 h 48 min
Bit rate                                 : 600 b/s
Count of elements                        : 56
Stream size                              : 475 KiB (0%)
Title                                    : Türkçe FORCED - Filmbol.org
Language                                 : Turkish
Default                                  : Yes
Forced                                   : No

Film Detayları


 Senden Önce Ben

 Senden Önce Ben

 Senden Önce Ben


Film Fragmanı


Film Detayları

Uptobox ile indir

1Fichier ile indir

1Fichier'den İndiremiyor musun? Tıklayın!


Mega linki şuan da gizli. Kullanıma açmak için konuya yorum yapın ve ardından sayfayı yenileyin.

Mega


Bunun için üzgünüz ancak, bu linke sadece premium üyeler erişebilir.

Filmbol Cloud





Şuan Online!
Şuan Online!
BroserBros Kurucu Admin
*******
Admin

09.12.2019 Güncelleme Notu:

Linkler yenilendi. Kırık linkler kaldırıldı ve Genel Konu Düzenlemesi Yapıldı
Şuan Offine!
Şuan Offine!
mussa Süper Üye
***
Super Üye

  • Konular0
  • Mesajlar36
  • Rep puanı 0
me before you harikasın
Şuan Online!
Şuan Online!
BroserBros Kurucu Admin
*******
Admin

03.04.2021 Yönetici Notu:

Kırık linkler kontrol edildi, kaldırıldı ve yenilendi. Tüm linkler tamamen çalışır durumda.


Konu ile Alakalı Benzer Konular
Konular Yazar Yorumlar Okunma Son Yorum
Filmin Yayınlanma Tarihi: 2011
Transformers: Ay'ın Karanlık Yüzü (Transformers: Dark of the Moon) - 2011 - TR+ORG - 1080P | tt1399103 TheSteeL 0 7 11 saat önce
Son Yorum: TheSteeL
Filmin Yayınlanma Tarihi: 2021
Her Şey Yok Olur (Things Heard & Seen) - 2021 - TR+ORG - 1080P | tt10962368 TheSteeL 0 6 11 saat önce
Son Yorum: TheSteeL
Filmin Yayınlanma Tarihi: 2018
Örümcek-Adam: Örümcek Evreninde (Spider-Man: Into the Spider-Verse) - 2018 - TR+ORG - 1080P | tt4633694 BroserBros 40 3,572 , Saat: 20:57
Son Yorum: DF FD
Filmin Yayınlanma Tarihi: 2015
Yıldız Savaşları 7: Güç Uyanıyor (Star Wars: Episode VII - The Force Awakens) - 2015 - TR+ORG - 1080P | tt2488496 BroserBros 24 4,558 , Saat: 18:00
Son Yorum: BroserBros
Filmin Yayınlanma Tarihi: 1983
Yıldız Savaşları 6: Jedi'ın Dönüşü (Star Wars: Episode VI - Return of the Jedi) - 1983 - TR+ORG - 1080P | tt0086190 BroserBros 24 3,407 , Saat: 17:48
Son Yorum: BroserBros

Hızlı Menü: