⤤ Premium'a Yükselt

Merhaba, Ziyaretçi. Mega linklerinin bir kısmı deaktif halde ve yenileme çalışmalarına başladık. Bu süre içinde ikinci duyuruya kadar mega linklerini raporlamayın!! x

Filmbol Forum Film İndir BRRip XviD v Hayvan Mezarlığı (Pet Sematary) - 2019 - TR - BRRip XviD | tt0837563

Filmbol TV kullanıma açıldı. Bu adresten giriş yapabilirsin: Giriş





Hayvan Mezarlığı (Pet Sematary) - 2019 - TR - BRRip XviD | tt0837563
BroserBros
Hayvan Mezarlığı (Pet Sematary) - 2019 - TR - BRRip XviD | tt0837563
9
1528
  • Derecelendirme: 0/5 - 0 oy
  • 1
  • 2
  • 3
  • 4
  • 5
Konuyu Okuyanlar:1 Ziyaretçi
Şuan Online!
Filmin Yayınlanma Tarihi: 2019 
WWW
Rapor Et!
Şuan Online!
BroserBros Kurucu Admin
*******
Admin




[avimp3][/avimp3]








 Hayvan Mezarlığı



Doktor Louis Creed ve eşi Rachel, iki çocuğu ile birlikte Bostan’da bulunan kırsal bir eve taşınırlar. Evin yanında bir mezarlık bulunur fakat bu gizemli ve ürkünç mezarlık hiç de normal bir mezarlık gibi değildir.

Hayvan Mezarlığı (2019) (Pet Sematary) | tt0837563 Filmi Imdb'den 82,000 kişi tarafından oylandı ve 5,7 puan aldı. Bu film için editör puanı 6 olarak belirlendi. İyi Seyirler!

Teknik Detaylar

Kod :
General
Complete name                            : /home/BroserBros/Desktop/3/Hayvan.Mezarlığı.2019.BRRip.XviD.TR.Filmbol.avi
Format                                   : AVI
Format/Info                              : Audio Video Interleave
File size                                : 864 MiB
Duration                                 : 1 h 40 min
Overall bit rate                         : 1 199 kb/s

Video
ID                                       : 0
Format                                   : MPEG-4 Visual
Format profile                           : Advanced [email protected]
Format settings                          : BVOP2
Format settings, BVOP                    : 2
Format settings, QPel                    : No
Format settings, GMC                     : No warppoints
Format settings, Matrix                  : Default (H.263)
Codec ID                                 : DIVX
Codec ID/Info                            : Project Mayo
Codec ID/Hint                            : DivX 4
Duration                                 : 1 h 40 min
Bit rate                                 : 1 058 kb/s
Width                                    : 720 pixels
Height                                   : 300 pixels
Display aspect ratio                     : 2.40:1
Frame rate                               : 23.976 (24000/1001) FPS
Color space                              : YUV
Chroma subsampling                       : 4:2:0
Bit depth                                : 8 bits
Scan type                                : Progressive
Compression mode                         : Lossy
Bits/(Pixel*Frame)                       : 0.204
Stream size                              : 763 MiB (88%)
Writing library                          : XviD 67

Audio
ID                                       : 1
Format                                   : MPEG Audio
Format version                           : Version 1
Format profile                           : Layer 3
Codec ID                                 : 55
Codec ID/Hint                            : MP3
Duration                                 : 1 h 40 min
Bit rate mode                            : Constant
Bit rate                                 : 128 kb/s
Channel(s)                               : 2 channels
Sampling rate                            : 48.0 kHz
Compression mode                         : Lossy
Stream size                              : 92.3 MiB (11%)
Alignment                                : Aligned on interleaves
Interleave, duration                     : 24  ms (0.58 video frame)
Writing library                          : LAME3.100ªªªªªªªªªª?

Film Detayları


 Hayvan Mezarlığı

 Hayvan Mezarlığı

 Hayvan Mezarlığı



Film Fragmanı


Film İndir


Rar Şifresi: filmbol.org



Uptobox ile indir

1Fichier ile indir

1Fichier'den İndiremiyor musun? Tıklayın!












Şuan Offine!
Rapor Et!
Şuan Offine!
kartal Uzman Üye
**
Uzman Üye
  • Konular0
  • Mesajlar21
  • Rep puanı 0
Tesekkürler...
Şuan Offine!
Rapor Et!
Şuan Offine!
Orsipro Üye
*
Üye
  • Konular0
  • Mesajlar2
  • Rep puanı 0
Teşekkürler.
Şuan Offine!
Rapor Et!
Şuan Offine!
BqRs Uzman Üye
**
Uzman Üye
  • Konular0
  • Mesajlar7
  • Rep puanı 0
teşekkürler
Şuan Offine!
Rapor Et!
Şuan Offine!
tamiasboi Üye
*
Üye
  • Konular0
  • Mesajlar72
  • Rep puanı 0
Teşekkürler
Şuan Offine!
Rapor Et!
Şuan Offine!
cemsav97 Süper Üye
***
Super Üye
  • Konular0
  • Mesajlar78
  • Rep puanı 2
teşekkürler
Şuan Offine!
Rapor Et!
Şuan Offine!
alynakrkya Uzman Üye
**
Uzman Üye
  • Konular0
  • Mesajlar9
  • Rep puanı 0
teşekkürler
Şuan Offine!
Rapor Et!
Şuan Offine!
Furkan61 Cezalı Üye
  • Konular0
  • Mesajlar288
güzel

linkler geçersiz lütfen yenileyin admin
Şuan Online!
Rapor Et!
Şuan Online!
BroserBros Kurucu Admin
*******
Admin
16.02.2021 Yönetici Notu:

Konu güncellendi. Kırık linkler kontrol edildi, kaldırıldı ve yenilendi. Tüm linkler tamamen çalışır durumda.

@Furkan61
Şuan Offine!
Rapor Et!
Şuan Offine!
Furkan61 Cezalı Üye
  • Konular0
  • Mesajlar288
teşekkürler


Hızlı Menü: