Filmbol Forum Film İndir 1080P v Mogli: Orman Çocuğu (Mowgli: Legend of The Jungle) - 2018 - TR+ORG - 1080P | tt2388771
Mega linklerinin şikayet edilmemesi için global erişime kapatıp sadece yorum yapanlara açıyoruz. Bu linkleri gizleme işlemini mecburen yapıyoruz ve yorum yapmanızın siteye değil size faydası vardır. Teşekürler yazmayı çok görüp, Random/Spam mesajlar atarak Mega linklerini açmaya çalışan kullanıcılara önce süresiz ban, devam ederse IP ban atacağız.
Filmbol'da moderatör olmak ister misiniz? Bizimle iletişime geçmek için tıklayın!
Mogli: Orman Çocuğu (Mowgli: Legend of The Jungle) - 2018 - TR+ORG - 1080P | tt2388771
BroserBros
Mogli: Orman Çocuğu (Mowgli: Legend of The Jungle) - 2018 - TR+ORG - 1080P | tt2388771
8
2660
  • Derecelendirme: 0/5 - 0 oy
  • 1
  • 2
  • 3
  • 4
  • 5
Konuyu Okuyanlar:1 Ziyaretçi
Şuan Online!
Filmin Yayınlanma Tarihi: 2018 
WWW
Şuan Online!
BroserBros Kurucu Admin
*******
Admin



 Mogli: Orman Çocuğu



Doğada yaşayan  Mowgli isimli bir insan yavrusu, Sehere Khan adında bir kaplan tarafından tarafından tehdit edilince Mowgli dostları Bagheera, Baloo ve Kurtlar ile birlikte özgürlük için savaşacaktır.

Mogli: Orman Çocuğu (2018) (Mowgli: Legend of The Jungle) | tt2388771 Filmi Imdb'den 60,000 kişi tarafından oylandı ve 6,5 puan aldı. Bu film için editör puanı %78 olarak belirlendi. İyi Seyirler!

Teknik Detaylar

Kod :
General
Unique ID                                : 222559031500323534974457097150776841663 (0xA76F4F70DF0E341D31191A90171D95BF)
Complete name                            : /home/BroserBros/Desktop/6/Mowgli.Orman.Çocuğu.2018.1080p.WEBRip.x264.TR.ENG.Filmbol.mkv
Format                                   : Matroska
Format version                           : Version 4
File size                                : 2.15 GiB
Duration                                 : 1 h 44 min
Overall bit rate                         : 2 938 kb/s
Movie name                               : Mowgli: Orman Çocuğu - Mowgli: Legend of The Jungle - 2018 | Filmbol.org
Encoded date                             : UTC 2021-04-20 14:47:18
Writing application                      : mkvmerge v53.0.0 ('Fool's Gold') 64-bit
Writing library                          : libebml v1.4.1 + libmatroska v1.6.2

Video
ID                                       : 1
Format                                   : AVC
Format/Info                              : Advanced Video Codec
Format profile                           : [email protected]
Format settings                          : CABAC / 4 Ref Frames
Format settings, CABAC                   : Yes
Format settings, Reference frames        : 4 frames
Codec ID                                 : V_MPEG4/ISO/AVC
Duration                                 : 1 h 44 min
Bit rate                                 : 2 150 kb/s
Width                                    : 1 920 pixels
Height                                   : 800 pixels
Display aspect ratio                     : 2.40:1
Frame rate mode                          : Constant
Frame rate                               : 23.976 (24000/1001) FPS
Color space                              : YUV
Chroma subsampling                       : 4:2:0
Bit depth                                : 8 bits
Scan type                                : Progressive
Bits/(Pixel*Frame)                       : 0.058
Stream size                              : 1.58 GiB (73%)
Title                                    : 1080P - Filmbol.org
Writing library                          : x264 core 152
Encoding settings                        : cabac=1 / ref=4 / deblock=1:-1:-1 / analyse=0x3:0x133 / me=umh / subme=9 / psy=1 / psy_rd=1.00:0.15 / mixed_ref=1 / me_range=24 / chroma_me=1 / trellis=2 / 8x8dct=1 / cqm=0 / deadzone=21,11 / fast_pskip=0 / chroma_qp_offset=-3 / threads=12 / lookahead_threads=1 / sliced_threads=0 / nr=0 / decimate=1 / interlaced=0 / bluray_compat=0 / constrained_intra=0 / bframes=3 / b_pyramid=2 / b_adapt=2 / b_bias=0 / direct=3 / weightb=1 / open_gop=0 / weightp=2 / keyint=250 / keyint_min=23 / scenecut=40 / intra_refresh=0 / rc_lookahead=60 / rc=2pass / mbtree=1 / bitrate=2150 / ratetol=1.0 / qcomp=0.60 / qpmin=0 / qpmax=69 / qpstep=4 / cplxblur=20.0 / qblur=0.5 / vbv_maxrate=31250 / vbv_bufsize=31250 / nal_hrd=none / filler=0 / ip_ratio=1.40 / aq=1:1.00
Default                                  : Yes
Forced                                   : No

Audio #1
ID                                       : 2
Format                                   : E-AC-3
Format/Info                              : Enhanced AC-3
Commercial name                          : Dolby Digital Plus
Codec ID                                 : A_EAC3
Duration                                 : 1 h 44 min
Bit rate mode                            : Constant
Bit rate                                 : 640 kb/s
Channel(s)                               : 6 channels
Channel layout                           : L R C LFE Ls Rs
Sampling rate                            : 48.0 kHz
Frame rate                               : 31.250 FPS (1536 SPF)
Compression mode                         : Lossy
Stream size                              : 480 MiB (22%)
Title                                    : Türkçe - Filmbol.org
Language                                 : Turkish
Service kind                             : Complete Main
Default                                  : Yes
Forced                                   : No

Audio #2
ID                                       : 4
Format                                   : AAC LC
Format/Info                              : Advanced Audio Codec Low Complexity
Codec ID                                 : A_AAC-2
Duration                                 : 1 h 44 min
Bit rate                                 : 144 kb/s
Channel(s)                               : 2 channels
Channel layout                           : L R
Sampling rate                            : 48.0 kHz
Frame rate                               : 46.875 FPS (1024 SPF)
Compression mode                         : Lossy
Stream size                              : 109 MiB (5%)
Title                                    : Orjinal Dil - Filmbol.org
Language                                 : English
Default                                  : No
Forced                                   : No

Text
ID                                       : 3
Format                                   : UTF-8
Codec ID                                 : S_TEXT/UTF8
Codec ID/Info                            : UTF-8 Plain Text
Duration                                 : 1 h 35 min
Bit rate                                 : 26 b/s
Count of elements                        : 750
Stream size                              : 18.3 KiB (0%)
Title                                    : Türkçe - Filmbol.org
Language                                 : Turkish
Default                                  : No
Forced                                   : No

Film Detayları


 Mogli: Orman Çocuğu

 Mogli: Orman Çocuğu

 Mogli: Orman Çocuğu


Film Fragmanı


Film Detayları

Uptobox ile indir

1Fichier ile indir

1Fichier'den İndiremiyor musun? Tıklayın!


Mega linki şuan da gizli. Kullanıma açmak için konuya yorum yapın ve ardından sayfayı yenileyin.

Mega


Bunun için üzgünüz ancak, bu linke sadece premium üyeler erişebilir.

Filmbol Cloud





Şuan Offine!
Şuan Offine!
emircan Süper Üye
***
Super Üye

  • Konular0
  • Mesajlar18
  • Rep puanı 0
güzel bir film hocam emeginize saglık
ℱİℒİBOL
Şuan Online!
Şuan Online!
BroserBros Kurucu Admin
*******
Admin

09.12.2019 Güncelleme Notu:

Linkler yenilendi. Kırık linkler kaldırıldı ve Genel Konu Düzenlemesi Yapıldı
Şuan Offine!
Şuan Offine!
enes21 Yeni Üye
*
Üye

  • Konular0
  • Mesajlar1
  • Rep puanı 0
Güzel
Şuan Offine!
Şuan Offine!
murassai Uzman Üye
**
Uzman Üye

  • Konular0
  • Mesajlar13
  • Rep puanı 0
kral efsane
Şuan Online!
Şuan Online!
Ugur_1988 Premium Üye
****

  • Konular5
  • Mesajlar73
  • Rep puanı 23
Teşekkürler
Şuan Offine!
Şuan Offine!
guray027 Yeni Üye
*
Üye

  • Konular0
  • Mesajlar1
  • Rep puanı 0
tesekkurler
Şuan Online!
Şuan Online!
BroserBros Kurucu Admin
*******
Admin

22.04.2021 Yönetici Notu:

Kırık linkler kontrol edildi, kaldırıldı ve yenilendi. Tüm linkler tamamen çalışır durumda.
Şuan Offine!
Şuan Offine!
davutk Süper Üye
***
Super Üye

  • Konular0
  • Mesajlar79
  • Rep puanı 0
teşekkürler


Hızlı Menü: