⤤ Premium'a Yükselt
Filmbol Forum Film İndir BRRip XviD v Zootropolis: Hayvanlar Şehri (Zootopia) - 2016 - TR - BRRip XviD | tt2948356

Filmbol TV kullanıma açıldı. Bu adresten giriş yapabilirsin: Giriş





Zootropolis: Hayvanlar Şehri (Zootopia) - 2016 - TR - BRRip XviD | tt2948356
BroserBros
Zootropolis: Hayvanlar Şehri (Zootopia) - 2016 - TR - BRRip XviD | tt2948356
9
6113
  • Derecelendirme: 0/5 - 0 oy
  • 1
  • 2
  • 3
  • 4
  • 5
Konuyu Okuyanlar:1 Ziyaretçi
Şuan Online!
Filmin Yayınlanma Tarihi: 2016 
WWW
Rapor Et!
Şuan Online!
BroserBros Kurucu Admin
*******
Admin



 Zootropolis: Hayvanlar Şehri



Antropomortik hayvanların bulunduğu bir şehirde, hayvanlar bir komplo’yu çıkarmak için birlikte çalışmalılar.

Zootropolis: Hayvanlar Şehri (2016) (Zootopia) | tt2948356 Filmi Imdb'den 460,000 kişi tarafından oylandı ve 8,0 puan aldı. Bu film için editör puanı %92 olarak belirlendi. İyi Seyirler!

Teknik Detaylar

Kod :
General
Complete name                            : C:\Users\Administrator\Desktop\1\Zootropolis.Hayvanlar.Şehri.2016.BRRip.XviD.TR.Filmbol.avi
Format                                   : AVI
Format/Info                              : Audio Video Interleave
File size                                : 1.15 GiB
Duration                                 : 1 h 48 min
Overall bit rate                         : 1 514 kb/s
Movie name                               : filmbol.org
Writing application                      : VirtualDubMod 1.5.10.2 (build 2540/release)
Writing library                          : VirtualDubMod build 2540/release

Video
ID                                       : 0
Format                                   : MPEG-4 Visual
Format profile                           : Advanced [email protected]
Format settings                          : BVOP2
Format settings, BVOP                    : 2
Format settings, QPel                    : No
Format settings, GMC                     : No warppoints
Format settings, Matrix                  : Default (H.263)
Muxing mode                              : Packed bitstream
Codec ID                                 : XVID
Codec ID/Hint                            : XviD
Duration                                 : 1 h 48 min
Bit rate                                 : 1 376 kb/s
Width                                    : 720 pixels
Height                                   : 304 pixels
Display aspect ratio                     : 2.35:1
Frame rate                               : 23.976 (24000/1001) FPS
Color space                              : YUV
Chroma subsampling                       : 4:2:0
Bit depth                                : 8 bits
Scan type                                : Progressive
Compression mode                         : Lossy
Bits/(Pixel*Frame)                       : 0.262
Stream size                              : 1.04 GiB (91%)
Writing library                          : XviD 66

Audio
ID                                       : 1
Format                                   : MPEG Audio
Format version                           : Version 1
Format profile                           : Layer 3
Format settings                          : Joint stereo / MS Stereo
Codec ID                                 : 55
Codec ID/Hint                            : MP3
Duration                                 : 1 h 48 min
Bit rate mode                            : Constant
Bit rate                                 : 128 kb/s
Channel(s)                               : 2 channels
Sampling rate                            : 48.0 kHz
Frame rate                               : 41.667 FPS (1152 SPF)
Compression mode                         : Lossy
Stream size                              : 99.4 MiB (8%)
Alignment                                : Split across interleaves
Interleave, duration                     : 42  ms (1.00 video frame)
Interleave, preload duration             : 500  ms
Language                                 : Undefined

Film Detayları


 Zootropolis: Hayvanlar Şehri

 Zootropolis: Hayvanlar Şehri

 Zootropolis: Hayvanlar Şehri


Film Fragmanı


Film İndir


Rar Şifresi: filmbol.org



Uptobox ile indir

1Fichier ile indir

1Fichier'den İndiremiyor musun? Tıklayın!












Şuan Offine!
Rapor Et!
Şuan Offine!
abdullah06 Uzman Üye
**
Uzman Üye
  • Konular0
  • Mesajlar6
  • Rep puanı 0
Teşekkürler
Şuan Offine!
Rapor Et!
Şuan Offine!
cizgilihasan Uzman Üye
**
Uzman Üye
  • Konular0
  • Mesajlar6
  • Rep puanı 0
tenkis

teeenkks
Şuan Online!
Rapor Et!
Şuan Online!
BroserBros Kurucu Admin
*******
Admin
09.12.2019 Güncelleme Notu:

Linkler yenilendi. Kırık linkler kaldırıldı ve Genel Konu Düzenlemesi Yapıldı
Şuan Offine!
Rapor Et!
Şuan Offine!
ercan Uzman Üye
**
Uzman Üye
  • Konular0
  • Mesajlar24
  • Rep puanı 0
tşk...
Şuan Offine!
Rapor Et!
Şuan Offine!
Ap0calypse Süper Üye
***
Super Üye
  • Konular0
  • Mesajlar38
  • Rep puanı 0
eline sağlık
Şuan Offine!
Rapor Et!
Şuan Offine!
cizgifilm Üye
*
Üye
  • Konular0
  • Mesajlar1
  • Rep puanı 0
(30-11-2019, Saat: 20:44)abdullah06 Adlı Kullanıcıdan Alıntı: Teşekkürler
sana da
Şuan Online!
Rapor Et!
Şuan Online!
BroserBros Kurucu Admin
*******
Admin
31.08.2021 Yönetici Notu:

Kırık linkler kontrol edildi, kaldırıldı ve yenilendi. Tüm linkler tamamen çalışır durumda.
Şuan Offine!
Rapor Et!
Şuan Offine!
PuNkDuNk Üye
*
Üye
  • Konular0
  • Mesajlar174
  • Rep puanı 0
Teşekkürler
Şuan Offine!
Rapor Et!
Şuan Offine!
b4b4 Üye
*
Üye
  • Konular0
  • Mesajlar3
  • Rep puanı 0
Teşekkürler.


Hızlı Menü: