Filmbol Forum Film İndir BRRip XviD v Kaptan Amerika: Kahramanların Savaşı (Captain America: Civil War) - 2016 - TR - BRRip XviD | tt3498820
Mega linklerinin şikayet edilmemesi için global erişime kapatıp sadece yorum yapanlara açıyoruz. Bu linkleri gizleme işlemini mecburen yapıyoruz ve yorum yapmanızın siteye değil size faydası vardır. Teşekürler yazmayı çok görüp, Random/Spam mesajlar atarak Mega linklerini açmaya çalışan kullanıcılara önce süresiz ban, devam ederse IP ban atacağız.
Filmbol'da moderatör olmak ister misiniz? Bizimle iletişime geçmek için tıklayın!
Kaptan Amerika: Kahramanların Savaşı (Captain America: Civil War) - 2016 - TR - BRRip XviD | tt3498820
BroserBros
Kaptan Amerika: Kahramanların Savaşı (Captain America: Civil War) - 2016 - TR - BRRip XviD | tt3498820
6
3030
  • Derecelendirme: 0/5 - 0 oy
  • 1
  • 2
  • 3
  • 4
  • 5
Konuyu Okuyanlar:1 Ziyaretçi
Şuan Online!
Filmin Yayınlanma Tarihi: 2016 
WWW
Şuan Online!
BroserBros Kurucu Admin
*******
Admin



 Kaptan Amerika: Kahramanların Savaşı



Süper kahramanların dünya için ne kadar iyi şeyler yaptığını herkes iyi biliyor. Ancak birde buradan bakın; Kahramanlar olmadan önce uzaylılar yoktu, savaş yoktu, kötülükler yoktu. Devlet ve dünya yaptıklarının yanında bunu da görmeye başladı ve süper kahramanlara sadece bir seçenek sundu; süper kahramanlar devlete bağlı olacaktı. Bu siyasi müdahale, Iron Man ve Captain Amerika arasında büyük bir çatlağa neden oldu.

Kaptan Amerika: Kahramanların Savaşı (2016) (Captain America: Civil War) | tt3498820 Filmi Imdb'den 680,000 kişi tarafından oylandı ve 7,8 puan aldı. Bu film için editör puanı %85 olarak belirlendi. İyi Seyirler!

Teknik Detaylar

Kod :
General
Complete name                            : /home/BroserBros/Desktop/3/Kaptan.Amerika.Kahramanların.Savaşı.2016.BRRip.XviD.TR.Filmbol.avi
Format                                   : AVI
Format/Info                              : Audio Video Interleave
File size                                : 1.17 GiB
Duration                                 : 2 h 27 min
Overall bit rate                         : 1 138 kb/s

Video
ID                                       : 0
Format                                   : MPEG-4 Visual
Format profile                           : Advanced [email protected]
Format settings                          : BVOP2
Format settings, BVOP                    : 2
Format settings, QPel                    : No
Format settings, GMC                     : No warppoints
Format settings, Matrix                  : Default (H.263)
Codec ID                                 : DIVX
Codec ID/Info                            : Project Mayo
Codec ID/Hint                            : DivX 4
Duration                                 : 2 h 27 min
Bit rate                                 : 997 kb/s
Width                                    : 1 152 pixels
Height                                   : 480 pixels
Display aspect ratio                     : 2.40:1
Frame rate                               : 23.976 (24000/1001) FPS
Color space                              : YUV
Chroma subsampling                       : 4:2:0
Bit depth                                : 8 bits
Scan type                                : Progressive
Compression mode                         : Lossy
Bits/(Pixel*Frame)                       : 0.075
Stream size                              : 1.03 GiB (88%)
Writing library                          : XviD 67

Audio
ID                                       : 1
Format                                   : MPEG Audio
Format version                           : Version 1
Format profile                           : Layer 3
Codec ID                                 : 55
Codec ID/Hint                            : MP3
Duration                                 : 2 h 27 min
Bit rate mode                            : Constant
Bit rate                                 : 128 kb/s
Channel(s)                               : 2 channels
Sampling rate                            : 48.0 kHz
Compression mode                         : Lossy
Stream size                              : 135 MiB (11%)
Alignment                                : Aligned on interleaves
Interleave, duration                     : 24  ms (0.58 video frame)

Film Detayları


 Kaptan Amerika: Kahramanların Savaşı

 Kaptan Amerika: Kahramanların Savaşı

 Kaptan Amerika: Kahramanların Savaşı


Film Fragmanı


Film Detayları


Uptobox ile indir

1Fichier ile indir

1Fichier'den İndiremiyor musun? Tıklayın!


Mega linki şuan da gizli. Kullanıma açmak için konuya yorum yapın ve ardından sayfayı yenileyin.

Mega


Bunun için üzgünüz ancak, bu linke sadece premium üyeler erişebilir.

Filmbol Cloud





Şuan Offine!
Şuan Offine!
cemsav97 Süper Üye
***
Super Üye

  • Konular0
  • Mesajlar67
  • Rep puanı 2
Teşekkürler
Şuan Offine!
Şuan Offine!
Megalodon Uzman Üye
**
Uzman Üye

  • Konular0
  • Mesajlar14
  • Rep puanı 0
Linkler yenilenebilir mi
Teşekkurler...

mega linki aktif yeni fark ettim kusura bakmayın
oradan indireyim
Şuan Online!
Şuan Online!
algül Süper Üye
***
Super Üye

  • Konular0
  • Mesajlar38
  • Rep puanı 0
çok sağol...
Şuan Online!
Şuan Online!
BroserBros Kurucu Admin
*******
Admin

11.03.2021 Yönetici Notu:

Kırık linkler kontrol edildi, kaldırıldı ve yenilendi. Tüm linkler tamamen çalışır durumda. @sectechno
Şuan Offine!
Şuan Offine!
sectechno Premium Üye
****

  • Konular11
  • Mesajlar108
  • Rep puanı 20
Teşekkürler BroserBros.İyi çalışmalar. Smile
Şuan Online!
Şuan Online!
Kingstone Uzman Üye
**
Uzman Üye

  • Konular0
  • Mesajlar16
  • Rep puanı 0
Teşekkürler, bu kaliteli film için


Hızlı Menü: