Filmbol Forum Film İndir 1080P v Yeniden Başla (Demolition) Türkçe Dublaj m1080P İndir
Mega linklerinin şikayet edilmemesi için global erişime kapatıp sadece yorum yapanlara açıyoruz. Bu linkleri gizleme işlemini mecburen yapıyoruz ve yorum yapmanızın siteye değil size faydası vardır. Teşekürler yazmayı çok görüp, Random/Spam mesajlar atarak Mega linklerini açmaya çalışan kullanıcılara önce süresiz ban, devam ederse IP ban atacağız.
Filmbol'da moderatör olmak ister misiniz? Bizimle iletişime geçmek için tıklayın!
Yeniden Başla (Demolition) Türkçe Dublaj m1080P İndir
BroserBros
Yeniden Başla (Demolition) Türkçe Dublaj m1080P İndir
2
1129
  • Derecelendirme: 0/5 - 0 oy
  • 1
  • 2
  • 3
  • 4
  • 5
Konuyu Okuyanlar:1 Ziyaretçi
Şuan Online!
Filmin Yayınlanma Tarihi: 2016 
WWW
Şuan Online!
BroserBros Kurucu Admin
*******
Admin





Ses Kodek: AC3


Audio Coding 3 (AC3)

rarsifresi


filmbol.org





Teknik Detaylar
Kod :
General
Format                                   : Matroska
Format version                           : Version 4 / Version 2
File size                                : 1.57 GiB
Duration                                 : 1h 40mn
Overall bit rate                         : 2 223 Kbps
Movie name                               : Demolition - Filmbol.org

Video
ID                                       : 1
Format                                   : AVC
Format/Info                              : Advanced Video Codec
Format profile                           : [email protected]
Format settings, CABAC                   : Yes
Format settings, ReFrames                : 5 frames
Codec ID                                 : V_MPEG4/ISO/AVC
Duration                                 : 1h 40mn
Bit rate                                 : 1 999 Kbps
Width                                    : 1 920 pixels
Height                                   : 818 pixels
Display aspect ratio                     : 2.35:1
Frame rate mode                          : Constant
Frame rate                               : 23.976 fps
Color space                              : YUV
Chroma subsampling                       : 4:2:0
Bit depth                                : 8 bits
Scan type                                : Progressive
Bits/(Pixel*Frame)                       : 0.053
Stream size                              : 1.38 GiB (88%)
Title                                    : 1080P - Filmbol.org
Writing library                          : x264 core 148 r2638 7599210
Default                                  : Yes
Forced                                   : No
Color primaries                          : BT.709
Matrix coefficients                      : BT.709

Audio
ID                                       : 2
Format                                   : AC-3
Format/Info                              : Audio Coding 3
Mode extension                           : CM (complete main)
Format settings, Endianness              : Big
Codec ID                                 : A_AC3
Duration                                 : 1h 40mn
Bit rate mode                            : Constant
Bit rate                                 : 224 Kbps
Channel(s)                               : 2 channels
Channel positions                        : Front: L R
Sampling rate                            : 48.0 KHz
Bit depth                                : 16 bits
Compression mode                         : Lossy
Stream size                              : 162 MiB (10%)
Title                                    : Türkçe - Filmbol.org
Language                                 : Turkish
Default                                  : Yes
Forced                                   : No



Film Detayları


Demolition

Demolition

Demolition

Demolition

Demolition


Film Fragmanı


Film Detayları

Mini 1080P İndir


Mega linki şuan da gizli. Kullanıma açmak için konuya yorum yapın ve ardından sayfayı yenileyin.

Mega


Uptobox ile indir

CloudRu ile indir

Şuan Offine!
Şuan Offine!
ruzgar787878 Süper Üye
***
Super Üye

  • Konular0
  • Mesajlar26
  • Rep puanı 0
thanks
Şuan Offine!
Şuan Offine!
Kutayahmet Yeni Üye
*
Üye

  • Konular0
  • Mesajlar1
  • Rep puanı 0
Çok güzel film aşık oldum ?????


Konu ile Alakalı Benzer Konular
Konular Yazar Yorumlar Okunma Son Yorum
Filmin Yayınlanma Tarihi: 2015
Chappie (Chappie) Türkçe Dublaj Bluray 1080P İndir BroserBros 4 3,230 , Saat: 12:41
Son Yorum: CanerYavuz
Filmin Yayınlanma Tarihi: 2019
Murder Mystery (Murder Mystery) Türkçe Dublaj m1080P İndir BroserBros 3 592 , Saat: 09:24
Son Yorum: CanerYavuz
Filmin Yayınlanma Tarihi: 2018
Soldado (Sicario: Day of the Saldoda) Türkçe Dublaj BLURAY m1080P İndir BroserBros 9 877 , Saat: 01:55
Son Yorum: davutk
Filmin Yayınlanma Tarihi: 2019
Pokemon Dedektif Pikachu (PokemonDetective Pikachu) Türkçe Dublaj BLURAY m1080P İndir BroserBros 32 3,284 , Saat: 01:37
Son Yorum: davutk
Filmin Yayınlanma Tarihi: 2018
Van Gogh: Sonsuzluğun Kapısında (At Eternity's Gate) Türkçe Dublaj BLURAY 1080P İndir BroserBros 2 513 , Saat: 01:26
Son Yorum: davutk

Hızlı Menü: