Filmbol Forum Film İndir BRRip XviD v Benim Adım Karl (Je Suis Karl) - 2021 - TR - BRRip XviD | tt9205538
Bildirimi Kapat
Server kaynaklı problemden dolayı ciddi bir sorun yaşadık. Şuanda forum ve portal aktif halde ancak bazı problemler hala devam ediyor. Problem gördüğünüz yerleri bize bildirmeniz çok önemli. Teşekkürler.

Bildirimi Kapat
Merhaba , site giderlerini bir nebze olsun karşılamak adına link kısaltma servisleri kullanmaya başladık. İndirme linkleri sizi ouo.io adresinde yönlendirecek, 3 saniye geçtikten sonra Get Link butonuna tıklayarak linke ulaşacaksınız. Premium üyeler bu durumdan etkilenmeyecektir.


Premium Üyelik Al

Benim Adım Karl (Je Suis Karl) - 2021 - TR - BRRip XviD | tt9205538
BroserBros
Benim Adım Karl (Je Suis Karl) - 2021 - TR - BRRip XviD | tt9205538
1
29
  • Derecelendirme: 0/5 - 0 oy
  • 1
  • 2
  • 3
  • 4
  • 5
Konuyu Okuyanlar:1 Ziyaretçi
Şuan Online!
Filmin Yayınlanma Tarihi: 2021 
Şuan Online!
BroserBros Kurucu Admin
*******
Admin


 Benim Adım Karl



Güçlü bir genç kadın olan Maxi ve babası Alex, Almanya’daki bir terör saldırısından kurtulmalarının ardından hayatlarına yeni bir yön vermeye çalışır. Maxi’nin hayatı, zeki bir öğrenci olan Karl ile tanışmasıyla bambaşka bir hal alır. Genç kızın içerisindeki öfkeyi fark eden ve onun aradığı cevapların kendisinde olduğuna inanan Karl sayesinde Maxi giderek büyüyen bir gençlik hareketine katılır.

Benim Adım Karl (2021) (Je Suis Karl) | tt9205538 Filmi Imdb'den 500 kişi tarafından oylandı ve 5,4 puan aldı. Bu film için editör puanı %55 olarak belirlendi. İyi Seyirler!

Teknik Detaylar

Kod :
General
Complete name                            : C:\Users\Administrator\Desktop\6\Benim.Adım.Karl.2021.BRRip.XviD.TR.Filmbol.avi
Format                                   : AVI
Format/Info                              : Audio Video Interleave
File size                                : 984 MiB
Duration                                 : 2 h 6 min
Overall bit rate                         : 1 085 kb/s

Video
ID                                       : 0
Format                                   : MPEG-4 Visual
Format profile                           : Advanced [email protected]
Format settings                          : BVOP2
Format settings, BVOP                    : 2
Format settings, QPel                    : No
Format settings, GMC                     : No warppoints
Format settings, Matrix                  : Default (H.263)
Codec ID                                 : XVID
Codec ID/Hint                            : XviD
Duration                                 : 2 h 6 min
Bit rate                                 : 944 kb/s
Width                                    : 766 pixels
Height                                   : 320 pixels
Display aspect ratio                     : 2.40:1
Frame rate                               : 24.000 FPS
Color space                              : YUV
Chroma subsampling                       : 4:2:0
Bit depth                                : 8 bits
Scan type                                : Progressive
Compression mode                         : Lossy
Bits/(Pixel*Frame)                       : 0.160
Stream size                              : 856 MiB (87%)
Writing library                          : XviD 67

Audio
ID                                       : 1
Format                                   : MPEG Audio
Format version                           : Version 1
Format profile                           : Layer 3
Codec ID                                 : 55
Codec ID/Hint                            : MP3
Duration                                 : 2 h 6 min
Bit rate mode                            : Constant
Bit rate                                 : 128 kb/s
Channel(s)                               : 2 channels
Sampling rate                            : 48.0 kHz
Compression mode                         : Lossy
Stream size                              : 116 MiB (12%)
Alignment                                : Aligned on interleaves
Interleave, duration                     : 24  ms (0.58 video frame)
Writing library                          : LAMEªª    ...: ¿½ËmmÈaMUË#“

Film Detayları


 Benim Adım Karl

 Benim Adım Karl

 Benim Adım Karl


Film Fragmanı


Film İndir



Zip Şifresi: filmbol.org Aşağıdaki butona tıklayarak kopyalabilirsiniz.



Uptobox ile indir

1Fichier ile indir

1Fichier'den İndiremiyor musun? Tıklayın!






Filmbol Cloud

Bunun için üzgünüz ancak, bu linke sadece premium üyeler erişebilir.




WWW
Şuan Online!
Şuan Online!
algül Süper Üye
***
Super Üye
  • Konular0
  • Mesajlar89
  • Rep puanı 0
çok sağol...


Hızlı Menü: