Filmbol Forum Film İndir BRRip XviD v My Little Pony: Yeni Bir Nesil (My Little Pony: A New Generation) - 2021 - TR - BRRip XviD | tt10101702
Bildirimi Kapat
Server kaynaklı problemden dolayı ciddi bir sorun yaşadık. Şuanda forum ve portal aktif halde ancak bazı problemler hala devam ediyor. Problem gördüğünüz yerleri bize bildirmeniz çok önemli. Teşekkürler.

Bildirimi Kapat
Merhaba , site giderlerini bir nebze olsun karşılamak adına link kısaltma servisleri kullanmaya başladık. İndirme linkleri sizi ouo.io adresinde yönlendirecek, 3 saniye geçtikten sonra Get Link butonuna tıklayarak linke ulaşacaksınız. Premium üyeler bu durumdan etkilenmeyecektir.


Premium Üyelik Al

My Little Pony: Yeni Bir Nesil (My Little Pony: A New Generation) - 2021 - TR - BRRip XviD | tt10101702
BroserBros
My Little Pony: Yeni Bir Nesil (My Little Pony: A New Generation) - 2021 - TR - BRRip XviD | tt10101702
0
37
  • Derecelendirme: 0/5 - 0 oy
  • 1
  • 2
  • 3
  • 4
  • 5
Konuyu Okuyanlar:2 Ziyaretçi
Şuan Online!
Filmin Yayınlanma Tarihi: 2021 
Şuan Online!
BroserBros Kurucu Admin
*******
Admin


 My Little Pony: Yeni Bir Nesil



Equestria artık büyüsünü kaybetmiştir. Yıllardır uyum içinde beraber yaşamakta olan ponyler, kanatlılar ve tek boynuzlular artık beraber yaşamamaktadır. İdealist Toprak Pony “Sunny”, dünyalarına sihir ve birliği geri getirmenin yolunu bulmaya kararlıdır. Bu sırada neşeli bir tekboynuzun Kısrak Koyu’nda kendisini göstermesiyle, Toprak Pony “Sunny” ve yeni arkadaşları, Equestria'ya sihri geri getirmeye, tüm ponylerin dost olduğunu ispatlamaya çalışmak için eğlenceli bir maceraya atılır.

My Little Pony: Yeni Bir Nesil (2021) (My Little Pony: A New Generation) | tt10101702 Filmi Imdb'den 1,000 kişi tarafından oylandı ve 7,3 puan aldı. Bu film için editör puanı %60 olarak belirlendi. İyi Seyirler!

Teknik Detaylar

Kod :
General
Complete name                            : C:\Users\Administrator\Desktop\1\My.Little.Pony.A.New.Generation.2021.BRRip.XviD.TR.Filmbol.avi
Format                                   : AVI
Format/Info                              : Audio Video Interleave
File size                                : 848 MiB
Duration                                 : 1 h 31 min
Overall bit rate                         : 1 296 kb/s

Video
ID                                       : 0
Format                                   : MPEG-4 Visual
Format profile                           : Advanced [email protected]
Format settings                          : BVOP2
Format settings, BVOP                    : 2
Format settings, QPel                    : No
Format settings, GMC                     : No warppoints
Format settings, Matrix                  : Default (H.263)
Codec ID                                 : XVID
Codec ID/Hint                            : XviD
Duration                                 : 1 h 31 min
Bit rate                                 : 1 155 kb/s
Width                                    : 766 pixels
Height                                   : 320 pixels
Display aspect ratio                     : 2.40:1
Frame rate                               : 24.000 FPS
Color space                              : YUV
Chroma subsampling                       : 4:2:0
Bit depth                                : 8 bits
Scan type                                : Progressive
Compression mode                         : Lossy
Bits/(Pixel*Frame)                       : 0.196
Stream size                              : 756 MiB (89%)
Writing library                          : XviD 67

Audio
ID                                       : 1
Format                                   : MPEG Audio
Format version                           : Version 1
Format profile                           : Layer 3
Codec ID                                 : 55
Codec ID/Hint                            : MP3
Duration                                 : 1 h 31 min
Bit rate mode                            : Constant
Bit rate                                 : 128 kb/s
Channel(s)                               : 2 channels
Sampling rate                            : 48.0 kHz
Compression mode                         : Lossy
Stream size                              : 83.8 MiB (10%)
Alignment                                : Aligned on interleaves
Interleave, duration                     : 24  ms (0.58 video frame)
Writing library                          : LAMEUU    kRQ¨ãm¤5ɦ#

Film Detayları


 My Little Pony: Yeni Bir Nesil

 My Little Pony: Yeni Bir Nesil

 My Little Pony: Yeni Bir Nesil


Film Fragmanı


Film İndir



Zip Şifresi: filmbol.org Aşağıdaki butona tıklayarak kopyalabilirsiniz.



Uptobox ile indir

1Fichier ile indir

1Fichier'den İndiremiyor musun? Tıklayın!






Filmbol Cloud

Bunun için üzgünüz ancak, bu linke sadece premium üyeler erişebilir.




WWW


Hızlı Menü: