Filmbol Forum Film İndir BRRip XviD v Brothers By Blood (The Sound of Philadelphia) - 2020 - TR - BRRip XviD | tt8368294
Bildirimi Kapat
Server kaynaklı problemden dolayı ciddi bir sorun yaşadık. Şuanda forum ve portal aktif halde ancak bazı problemler hala devam ediyor. Problem gördüğünüz yerleri bize bildirmeniz çok önemli. Teşekkürler.

Bildirimi Kapat
Merhaba , site giderlerini bir nebze olsun karşılamak adına link kısaltma servisleri kullanmaya başladık. İndirme linkleri sizi ouo.io adresinde yönlendirecek, 3 saniye geçtikten sonra Get Link butonuna tıklayarak linke ulaşacaksınız. Premium üyeler bu durumdan etkilenmeyecektir.


Premium Üyelik Al

Brothers By Blood (The Sound of Philadelphia) - 2020 - TR - BRRip XviD | tt8368294
BroserBros
Brothers By Blood (The Sound of Philadelphia) - 2020 - TR - BRRip XviD | tt8368294
0
34
  • Derecelendirme: 0/5 - 0 oy
  • 1
  • 2
  • 3
  • 4
  • 5
Konuyu Okuyanlar:1 Ziyaretçi
Şuan Online!
Filmin Yayınlanma Tarihi: 2020 
Şuan Online!
BroserBros Kurucu Admin
*******
Admin


 Brothers By Blood



Otuz sene önce Michael’in ailesi, babasının vefat etmesinin ardından Peter’ı evlatlık alır. Bugün iki yetişkin olan Peter ve Michael, birbirinin tamamın zıttı olan iki hayduttur. Biri ne kadar sessizse diğeri bir o kadar şiddetli ve coşkuludur. Bu sırada Michael’in İtalyan mafyası tarafından utanç verici olarak adlandırılması, ailenin sorunlu geçmişinin yeniden gün yüzüne çıkmasına neden olur.

Brothers By Blood (2020) (The Sound of Philadelphia) | tt8368294 Filmi Imdb'den 1,500 kişi tarafından oylandı ve 4,9 puan aldı. Bu film için editör puanı %55 olarak belirlendi. İyi Seyirler!

Teknik Detaylar

Kod :
General
Complete name                            : C:\Users\Administrator\Desktop\4\Brothers.By.Blood.2020.BRRip.XviD.TR.Filmbol.avi
Format                                   : AVI
Format/Info                              : Audio Video Interleave
File size                                : 483 MiB
Duration                                 : 1 h 30 min
Overall bit rate                         : 746 kb/s

Video
ID                                       : 0
Format                                   : MPEG-4 Visual
Format profile                           : Advanced [email protected]
Format settings                          : BVOP2
Format settings, BVOP                    : 2
Format settings, QPel                    : No
Format settings, GMC                     : No warppoints
Format settings, Matrix                  : Default (H.263)
Codec ID                                 : XVID
Codec ID/Hint                            : XviD
Duration                                 : 1 h 30 min
Bit rate                                 : 605 kb/s
Width                                    : 766 pixels
Height                                   : 320 pixels
Display aspect ratio                     : 2.40:1
Frame rate                               : 23.976 (24000/1001) FPS
Color space                              : YUV
Chroma subsampling                       : 4:2:0
Bit depth                                : 8 bits
Scan type                                : Progressive
Compression mode                         : Lossy
Bits/(Pixel*Frame)                       : 0.103
Stream size                              : 391 MiB (81%)
Writing library                          : XviD 67

Audio
ID                                       : 1
Format                                   : MPEG Audio
Format version                           : Version 1
Format profile                           : Layer 3
Codec ID                                 : 55
Codec ID/Hint                            : MP3
Duration                                 : 1 h 30 min
Bit rate mode                            : Constant
Bit rate                                 : 128 kb/s
Channel(s)                               : 2 channels
Sampling rate                            : 48.0 kHz
Compression mode                         : Lossy
Stream size                              : 82.8 MiB (17%)
Alignment                                : Aligned on interleaves
Interleave, duration                     : 24  ms (0.58 video frame)

Film Detayları


 Brothers By Blood

 Brothers By Blood

 Brothers By Blood


Film Fragmanı


Film İndir



Zip Şifresi: filmbol.org Aşağıdaki butona tıklayarak kopyalabilirsiniz.



Uptobox ile indir

1Fichier ile indir

1Fichier'den İndiremiyor musun? Tıklayın!






Filmbol Cloud

Bunun için üzgünüz ancak, bu linke sadece premium üyeler erişebilir.




WWW


Hızlı Menü: