Filmbol Forum Film İndir FHD - FULL HD v Sonsuz Aşk (After Everything) - 2018 - TR+ORG - FHD - x264 | tt6688022
Bildirimi Kapat
Server kaynaklı problemden dolayı ciddi bir sorun yaşadık. Şuanda forum ve portal aktif halde ancak bazı problemler hala devam ediyor. Problem gördüğünüz yerleri bize bildirmeniz çok önemli. Teşekkürler.

Bildirimi Kapat
Merhaba , site giderlerini bir nebze olsun karşılamak adına link kısaltma servisleri kullanmaya başladık. İndirme linkleri sizi ouo.io adresinde yönlendirecek, 3 saniye geçtikten sonra Get Link butonuna tıklayarak linke ulaşacaksınız. Premium üyeler bu durumdan etkilenmeyecektir.


Premium Üyelik Al

Sonsuz Aşk (After Everything) - 2018 - TR+ORG - FHD - x264 | tt6688022
BroserBros
Sonsuz Aşk (After Everything) - 2018 - TR+ORG - FHD - x264 | tt6688022
0
16
  • Derecelendirme: 0/5 - 0 oy
  • 1
  • 2
  • 3
  • 4
  • 5
Konuyu Okuyanlar:1 Ziyaretçi
Şuan Online!
Filmin Yayınlanma Tarihi: 2018 
Şuan Online!
BroserBros Kurucu Admin
*******
Admin


 Sonsuz Aşk



New York'ta yaşamakta olan kaygısız bir genç olan 12 yaşındaki Elliot, mantıklı bir genç kadın olan Mia ile tesadüfen tanıştığında yaşamının güzelleştiğini düşünür. Ancak o tam da bu esnada Elliot'a hastalık teşhisi konulması ile hayatı altüst olur. Eliot, bir yandan tedavisi ile uğraşırken bir taraftan da Mia ile güzel bir ilişki kurmaya çalışır.

Sonsuz Aşk (2018) (After Everything) | tt6688022 Filmi Imdb'den 2,000 kişi tarafından oylandı ve 6,4 puan aldı. Bu film için editör puanı %60 olarak belirlendi. İyi Seyirler!

Teknik Detaylar

Kod :
General
Unique ID                                : 285473411651898386422754608057786049094 (0xD6C42DDEEA7BEF718DCA4E56E3142246)
Complete name                            : C:\Users\Administrator\Desktop\2\Sonsuz.Aşk.2018.FHD.BluRay.x264.TR.ENG.Filmbol.mkv
Format                                   : Matroska
Format version                           : Version 4
File size                                : 3.77 GiB
Duration                                 : 1 h 33 min
Overall bit rate                         : 5 775 kb/s
Movie name                               : Sonsuz Aşk - After Everything - 2018 | Filmbol.org
Encoded date                             : UTC 2021-09-26 08:27:29
Writing application                      : mkvmerge v61.0.0 ('So') 64-bit
Writing library                          : libebml v1.4.2 + libmatroska v1.6.4

Video
ID                                       : 1
Format                                   : AVC
Format/Info                              : Advanced Video Codec
Format profile                           : [email protected]
Format settings                          : CABAC / 4 Ref Frames
Format settings, CABAC                   : Yes
Format settings, Reference frames        : 4 frames
Codec ID                                 : V_MPEG4/ISO/AVC
Duration                                 : 1 h 33 min
Bit rate                                 : 5 500 kb/s
Width                                    : 1 920 pixels
Height                                   : 1 080 pixels
Display aspect ratio                     : 16:9
Frame rate mode                          : Constant
Frame rate                               : 23.976 (24000/1001) FPS
Color space                              : YUV
Chroma subsampling                       : 4:2:0
Bit depth                                : 8 bits
Scan type                                : Progressive
Bits/(Pixel*Frame)                       : 0.111
Stream size                              : 3.50 GiB (93%)
Title                                    : FHD - Filmbol.org
Writing library                          : x264 core 152 r2854 e9a5903
Encoding settings                        : cabac=1 / ref=3 / deblock=1:0:0 / analyse=0x3:0x113 / me=hex / subme=7 / psy=1 / psy_rd=1.00:0.00 / mixed_ref=1 / me_range=16 / chroma_me=1 / trellis=1 / 8x8dct=1 / cqm=0 / deadzone=21,11 / fast_pskip=1 / chroma_qp_offset=-2 / threads=8 / lookahead_threads=1 / sliced_threads=0 / nr=0 / decimate=1 / interlaced=0 / bluray_compat=0 / constrained_intra=0 / bframes=3 / b_pyramid=2 / b_adapt=2 / b_bias=0 / direct=1 / weightb=1 / open_gop=0 / weightp=2 / keyint=infinite / keyint_min=23 / scenecut=40 / intra_refresh=0 / rc_lookahead=40 / rc=2pass / mbtree=1 / bitrate=5500 / ratetol=1.0 / qcomp=0.60 / qpmin=0 / qpmax=69 / qpstep=4 / cplxblur=20.0 / qblur=0.5 / vbv_maxrate=5500 / vbv_bufsize=5500 / nal_hrd=none / filler=0 / ip_ratio=1.40 / aq=1:1.00
Language                                 : English
Default                                  : Yes
Forced                                   : No

Audio #1
ID                                       : 2
Format                                   : AC-3
Format/Info                              : Audio Coding 3
Commercial name                          : Dolby Digital
Codec ID                                 : A_AC3
Duration                                 : 1 h 33 min
Bit rate mode                            : Constant
Bit rate                                 : 224 kb/s
Channel(s)                               : 2 channels
Channel layout                           : L R
Sampling rate                            : 48.0 kHz
Frame rate                               : 31.250 FPS (1536 SPF)
Compression mode                         : Lossy
Delay relative to video                  : -21 ms
Stream size                              : 150 MiB (4%)
Title                                    : Türkçe - Filmbol.org
Language                                 : Turkish
Service kind                             : Complete Main
Default                                  : Yes
Forced                                   : No

Audio #2
ID                                       : 3
Format                                   : AAC LC
Format/Info                              : Advanced Audio Codec Low Complexity
Codec ID                                 : A_AAC-2
Duration                                 : 1 h 33 min
Bit rate                                 : 192 kb/s
Channel(s)                               : 2 channels
Channel layout                           : L R
Sampling rate                            : 48.0 kHz
Frame rate                               : 46.875 FPS (1024 SPF)
Compression mode                         : Lossy
Delay relative to video                  : -21 ms
Stream size                              : 129 MiB (3%)
Title                                    : Orijinal Dil - Filmbol.org
Language                                 : English
Default                                  : No
Forced                                   : No

Text #1
ID                                       : 4
Format                                   : UTF-8
Codec ID                                 : S_TEXT/UTF8
Codec ID/Info                            : UTF-8 Plain Text
Duration                                 : 1 h 33 min
Bit rate                                 : 71 b/s
Count of elements                        : 1596
Stream size                              : 48.7 KiB (0%)
Title                                    : Türkçe - Filmbol.org
Language                                 : Turkish
Default                                  : No
Forced                                   : No

Text #2
ID                                       : 5
Format                                   : UTF-8
Codec ID                                 : S_TEXT/UTF8
Codec ID/Info                            : UTF-8 Plain Text
Duration                                 : 1 h 32 min
Bit rate                                 : 69 b/s
Count of elements                        : 1682
Stream size                              : 47.3 KiB (0%)
Language                                 : English
Default                                  : No
Forced                                   : No

Film Detayları


 Sonsuz Aşk

 Sonsuz Aşk

 Sonsuz Aşk


Film Fragmanı


Film İndir



Zip Şifresi: filmbol.org Aşağıdaki butona tıklayarak kopyalabilirsiniz.





Filmbol Cloud

Bunun için üzgünüz ancak, bu linke sadece premium üyeler erişebilir.




WWW


Hızlı Menü: