Filmbol Forum Film İndir UHD - ULTRA HD - 4K v Avcı: Kış Savaşı (The Huntsman: Winter's War) - 2016 - TR+ORG - UHD (4K) - 10Bit-x265 | tt2381991
Bildirimi Kapat
Server kaynaklı problemden dolayı ciddi bir sorun yaşadık. Şuanda forum ve portal aktif halde ancak bazı problemler hala devam ediyor. Problem gördüğünüz yerleri bize bildirmeniz çok önemli. Teşekkürler.

Bildirimi Kapat
Merhaba , site giderlerini bir nebze olsun karşılamak adına link kısaltma servisleri kullanmaya başladık. İndirme linkleri sizi ouo.io adresinde yönlendirecek, 3 saniye geçtikten sonra Get Link butonuna tıklayarak linke ulaşacaksınız. Premium üyeler bu durumdan etkilenmeyecektir.


Premium Üyelik Al

Avcı: Kış Savaşı (The Huntsman: Winter's War) - 2016 - TR+ORG - UHD (4K) - 10Bit-x265 | tt2381991
BroserBros
Avcı: Kış Savaşı (The Huntsman: Winter's War) - 2016 - TR+ORG - UHD (4K) - 10Bit-x265 | tt2381991
1
14
  • Derecelendirme: 0/5 - 0 oy
  • 1
  • 2
  • 3
  • 4
  • 5
Konuyu Okuyanlar:1 Ziyaretçi
Şuan Online!
Filmin Yayınlanma Tarihi: 2016 
Şuan Online!
BroserBros Kurucu Admin
*******
Admin


 Avcı: Kış Savaşı



Seriye yeni dahil olan Emily Blunt’un Buz Kraliçesi’ni Jessica Chastain’ın ise savaşçıyı canlandıracağı yapımda ilk filmin avcısı Chris Hemsworth ve kötü kraliçesi Charlize Theron rolleri için tekrar kamera karşısına geçiyor. Film, gücünü kaybeden kardeşi Ravenna’yı (Theron) diriltmek için sihirli aynanın peşine düşen Buz Kraliçesi ile Chris Hemsworth ile güçlerini birleştiren bir diğer avcı Jessica Chastain’ın arasında geçen mücadeleyi işleyecek. Aynayı geri almak için bir avcı birliğini görevlendiren kraliçeye karşı iki iyi kalpli avcı güç birliği yapacak.

Avcı: Kış Savaşı (2016) (The Huntsman: Winter's War) | tt2381991 Filmi Imdb'den 110,000 kişi tarafından oylandı ve 6,1 puan aldı. Bu film için editör puanı %74 olarak belirlendi. İyi Seyirler!

Teknik Detaylar

Kod :
General
Unique ID                                : 228129543988884728567619045085399947334 (0xABA026E942788AD14469DA9998B31846)
Complete name                            : C:\Users\Administrator\Desktop\1\Avcı.Kış.Askeri.2016.2160p.4K.BluRay.x265.10Bit.HDR.HEVC.TR.ENG.Filmbol.mkv
Format                                   : Matroska
Format version                           : Version 4
File size                                : 6.24 GiB
Duration                                 : 2 h 0 min
Overall bit rate                         : 7 431 kb/s
Movie name                               : Avcı: Kış Askeri - The Huntsman: Winter's War - 2016 | Filmbol.org
Encoded date                             : UTC 2021-09-26 07:34:52
Writing application                      : mkvmerge v61.0.0 ('So') 64-bit
Writing library                          : libebml v1.4.2 + libmatroska v1.6.4

Video
ID                                       : 1
Format                                   : HEVC
Format/Info                              : High Efficiency Video Coding
Format profile                           : Main [email protected]@Main
Codec ID                                 : V_MPEGH/ISO/HEVC
Duration                                 : 2 h 0 min
Bit rate                                 : 6 000 kb/s
Width                                    : 3 840 pixels
Height                                   : 1 600 pixels
Display aspect ratio                     : 2.40:1
Frame rate mode                          : Constant
Frame rate                               : 23.976 (24000/1001) FPS
Color space                              : YUV
Chroma subsampling                       : 4:2:0
Bit depth                                : 10 bits
Bits/(Pixel*Frame)                       : 0.041
Stream size                              : 5.04 GiB (81%)
Title                                    : 4K - Filmbol.org
Writing library                          : x265 2.5+2-18fa144d453e:[Windows][GCC 7.1.0][64 bit] 10bit
Encoding settings                        : cpuid=1173503 / frame-threads=3 / numa-pools=8 / wpp / no-pmode / no-pme / no-psnr / ssim / log-level=2 / input-csp=1 / input-res=3840x1600 / interlace=0 / total-frames=172874 / level-idc=0 / high-tier=1 / uhd-bd=0 / ref=3 / no-allow-non-conformance / no-repeat-headers / annexb / no-aud / no-hrd / info / hash=0 / no-temporal-layers / open-gop / min-keyint=23 / keyint=250 / bframes=4 / b-adapt=2 / b-pyramid / bframe-bias=0 / rc-lookahead=20 / lookahead-slices=8 / scenecut=40 / no-intra-refresh / ctu=64 / min-cu-size=8 / no-rect / no-amp / max-tu-size=32 / tu-inter-depth=1 / tu-intra-depth=1 / limit-tu=0 / rdoq-level=0 / dynamic-rd=0.00 / ssim-rd / signhide / no-tskip / nr-intra=0 / nr-inter=0 / no-constrained-intra / strong-intra-smoothing / max-merge=2 / limit-refs=3 / no-limit-modes / me=1 / subme=2 / merange=57 / temporal-mvp / weightp / no-weightb / no-analyze-src-pics / deblock=0:0 / sao / no-sao-non-deblock / rd=5 / no-early-skip / rskip / no-fast-intra / no-tskip-fast / no-cu-lossless / no-b-intra / rdpenalty=0 / psy-rd=0.00 / psy-rdoq=0.00 / no-rd-refine / analysis-reuse-mode=0 / no-lossless / cbqpoffs=0 / crqpoffs=0 / rc=abr / bitrate=6000 / qcomp=0.60 / qpstep=4 / stats-write=0 / stats-read=2 / cplxblur=20.0 / qblur=0.5 / ipratio=1.40 / pbratio=1.30 / aq-mode=3 / aq-strength=1.00 / cutree / zone-count=0 / no-strict-cbr / qg-size=32 / no-rc-grain / qpmax=69 / qpmin=0 / no-const-vbv / sar=0 / overscan=0 / videoformat=5 / range=0 / colorprim=2 / transfer=2 / colormatrix=2 / chromaloc=0 / display-window=0 / max-cll=0,0 / min-luma=0 / max-luma=1023 / log2-max-poc-lsb=8 / vui-timing-info / vui-hrd-info / slices=1 / opt-qp-pps / opt-ref-list-length-pps / multi-pass-opt-rps / scenecut-bias=0.05 / no-opt-cu-delta-qp / aq-motion / no-hdr / no-hdr-opt / no-dhdr10-opt / analysis-reuse-level=5 / scale-factor=0 / refine-intra=0 / refine-inter=0 / refine-mv=0 / no-limit-sao / ctu-info=0
Language                                 : English
Default                                  : Yes
Forced                                   : No

Audio #1
ID                                       : 2
Format                                   : AC-3
Format/Info                              : Audio Coding 3
Commercial name                          : Dolby Digital
Codec ID                                 : A_AC3
Duration                                 : 2 h 0 min
Bit rate mode                            : Constant
Bit rate                                 : 640 kb/s
Channel(s)                               : 6 channels
Channel layout                           : L R C LFE Ls Rs
Sampling rate                            : 48.0 kHz
Frame rate                               : 31.250 FPS (1536 SPF)
Compression mode                         : Lossy
Stream size                              : 550 MiB (9%)
Title                                    : Türkçe - Filmbol.org
Language                                 : Turkish
Service kind                             : Complete Main
Default                                  : Yes
Forced                                   : No

Audio #2
ID                                       : 3
Format                                   : AAC LC
Format/Info                              : Advanced Audio Codec Low Complexity
Codec ID                                 : A_AAC-2
Duration                                 : 2 h 0 min
Bit rate                                 : 773 kb/s
Channel(s)                               : 8 channels
Channel layout                           : C L R Ls Rs Lw Rw LFE
Sampling rate                            : 48.0 kHz
Frame rate                               : 46.875 FPS (1024 SPF)
Compression mode                         : Lossy
Delay relative to video                  : 9 ms
Stream size                              : 665 MiB (10%)
Title                                    : Orijinal Dil - Filmbol.org
Language                                 : English
Default                                  : Yes
Forced                                   : No

Text #1
ID                                       : 4
Format                                   : PGS
Muxing mode                              : zlib
Codec ID                                 : S_HDMV/PGS
Codec ID/Info                            : Picture based subtitle format used on BDs/HD-DVDs
Duration                                 : 1 h 59 min
Bit rate                                 : 21.1 kb/s
Count of elements                        : 2276
Stream size                              : 18.0 MiB (0%)
Title                                    : Türkçe - Filmbol.org
Language                                 : Turkish
Default                                  : No
Forced                                   : No

Text #2
ID                                       : 5
Format                                   : PGS
Muxing mode                              : zlib
Codec ID                                 : S_HDMV/PGS
Codec ID/Info                            : Picture based subtitle format used on BDs/HD-DVDs
Duration                                 : 1 h 59 min
Bit rate                                 : 25.4 kb/s
Count of elements                        : 2652
Stream size                              : 21.7 MiB (0%)
Title                                    : Orijinal Dil - Filmbol.org
Language                                 : English
Default                                  : No
Forced                                   : No

Film Detayları


 Avcı: Kış Savaşı

 Avcı: Kış Savaşı

 Avcı: Kış Savaşı


Film Fragmanı


Film İndir



Zip Şifresi: filmbol.org Aşağıdaki butona tıklayarak kopyalabilirsiniz.





Filmbol Cloud

Bunun için üzgünüz ancak, bu linke sadece premium üyeler erişebilir.




WWW
Şuan Offine!
Şuan Offine!
nseyhan Yeni Üye
*
Üye
  • Konular0
  • Mesajlar52
  • Rep puanı 0
teşekkürler.


Hızlı Menü: