Filmbol Forum Film İndir FHD - FULL HD v Gerçek Kahraman (Free Guy) - 2021 - Türkçe Altyazı! - FHD - x264 | tt6264654
Bildirimi Kapat
Server kaynaklı problemden dolayı ciddi bir sorun yaşadık. Şuanda forum ve portal aktif halde ancak bazı problemler hala devam ediyor. Problem gördüğünüz yerleri bize bildirmeniz çok önemli. Teşekkürler.

Bildirimi Kapat
Merhaba , site giderlerini bir nebze olsun karşılamak adına link kısaltma servisleri kullanmaya başladık. İndirme linkleri sizi ouo.io adresinde yönlendirecek, 3 saniye geçtikten sonra Get Link butonuna tıklayarak linke ulaşacaksınız. Premium üyeler bu durumdan etkilenmeyecektir.


Premium Üyelik Al

Gerçek Kahraman (Free Guy) - 2021 - Türkçe Altyazı! - FHD - x264 | tt6264654
BroserBros
Gerçek Kahraman (Free Guy) - 2021 - Türkçe Altyazı! - FHD - x264 | tt6264654
8
156
  • Derecelendirme: 0/5 - 0 oy
  • 1
  • 2
  • 3
  • 4
  • 5
Konuyu Okuyanlar:mstfzcn, 5 Ziyaretçi
Şuan Online!
Filmin Yayınlanma Tarihi: 2021 
Şuan Online!
BroserBros Kurucu Admin
*******
Admin


 Gerçek Kahraman



Gerçek Kahraman, açık dünya oyunu olan Free City'de bir arka plan karakteri olduğunu keşfeden bir banka kamu personeliunun sıradışı hikayesini konu ediyor. Guy, rutin bir yaşam süren ve bir bankada kamu personeli olarak çalışan genç bir adamdır. Bir gün genç adam, Free City adında acımasız bir açık dünya oyununda arka plan karakteri olduğunu keşfeder. Bu keşif onun yaşamının bambaşka bir hal almasına neden olur. Artık kendi hikayesinin kahramanı olmaya karar veren Guy, sınırları olmayan bu dünyada hayatta kalmak ve diğer karakterleri kurtarmak için zorlu bir mücadeleye girişir.

Gerçek Kahraman (2021) (Free Guy) | tt6264654 Filmi Imdb'den 70,000 kişi tarafından oylandı ve 7,5 puan aldı. Bu film için editör puanı %89 olarak belirlendi. İyi Seyirler!

Teknik Detaylar

Kod :
General
Unique ID                                : 156135063752861094902330420708833365357 (0x757684FBA941AB232C39DA55968A0D6D)
Complete name                            : C:\Users\Administrator\Desktop\Yenile\Gerçek.Kahraman.2021.FHD.BluRay.x264.Türkçe.Altyazı.Filmbol.mkv
Format                                   : Matroska
Format version                           : Version 4
File size                                : 16.8 GiB
Duration                                 : 1 h 54 min
Overall bit rate mode                    : Variable
Overall bit rate                         : 21.0 Mb/s
Movie name                               : Gerçek Kahraman - Free Guy - 2021 | Filmbol.org
Encoded date                             : UTC 2021-09-25 16:53:58
Writing application                      : mkvmerge v61.0.0 ('So') 64-bit
Writing library                          : libebml v1.4.2 + libmatroska v1.6.4

Video
ID                                       : 1
Format                                   : AVC
Format/Info                              : Advanced Video Codec
Format profile                           : [email protected]
Format settings                          : CABAC / 5 Ref Frames
Format settings, CABAC                   : Yes
Format settings, Reference frames        : 5 frames
Codec ID                                 : V_MPEG4/ISO/AVC
Duration                                 : 1 h 54 min
Bit rate                                 : 15.9 Mb/s
Width                                    : 1 920 pixels
Height                                   : 804 pixels
Display aspect ratio                     : 2.40:1
Frame rate mode                          : Constant
Frame rate                               : 23.976 (24000/1001) FPS
Color space                              : YUV
Chroma subsampling                       : 4:2:0
Bit depth                                : 8 bits
Scan type                                : Progressive
Bits/(Pixel*Frame)                       : 0.429
Stream size                              : 12.8 GiB (76%)
Title                                    : FHD - Filmbol.org
Writing library                          : x264 core 164 r3065 ae03d92
Encoding settings                        : cabac=1 / ref=5 / deblock=1:-3:-3 / analyse=0x3:0x133 / me=umh / subme=9 / psy=1 / psy_rd=1.00:0.00 / mixed_ref=1 / me_range=16 / chroma_me=1 / trellis=2 / 8x8dct=1 / cqm=0 / deadzone=21,11 / fast_pskip=0 / chroma_qp_offset=-2 / threads=24 / lookahead_threads=2 / sliced_threads=0 / nr=0 / decimate=0 / interlaced=0 / bluray_compat=0 / constrained_intra=0 / bframes=3 / b_pyramid=2 / b_adapt=2 / b_bias=0 / direct=3 / weightb=1 / open_gop=0 / weightp=2 / keyint=250 / keyint_min=23 / scenecut=40 / intra_refresh=0 / rc=crf / mbtree=0 / crf=16.0 / qcomp=0.60 / qpmin=0 / qpmax=69 / qpstep=4 / ip_ratio=1.40 / pb_ratio=1.30 / aq=3:0.70
Language                                 : English
Default                                  : Yes
Forced                                   : No
Color range                              : Limited
Matrix coefficients                      : BT.709

Audio
ID                                       : 2
Format                                   : DTS ES XLL
Format/Info                              : Digital Theater Systems
Commercial name                          : DTS-HD Master Audio
Codec ID                                 : A_DTS
Duration                                 : 1 h 54 min
Bit rate mode                            : Variable
Bit rate                                 : 5 071 kb/s
Channel(s)                               : 8 channels
Channel layout                           : C L R Ls Rs LFE Lb Rb
Sampling rate                            : 48.0 kHz
Frame rate                               : 93.750 FPS (512 SPF)
Bit depth                                : 24 bits
Compression mode                         : Lossless
Stream size                              : 4.07 GiB (24%)
Title                                    : Orijinal Dil - Filmbol.org
Language                                 : English
Default                                  : Yes
Forced                                   : No

Text #1
ID                                       : 3
Format                                   : UTF-8
Codec ID                                 : S_TEXT/UTF8
Codec ID/Info                            : UTF-8 Plain Text
Duration                                 : 1 h 45 min
Bit rate                                 : 79 b/s
Count of elements                        : 1828
Stream size                              : 61.2 KiB (0%)
Title                                    : Türkçe - Filmbol.org
Language                                 : Turkish
Default                                  : No
Forced                                   : No

Text #2
ID                                       : 4
Format                                   : UTF-8
Codec ID                                 : S_TEXT/UTF8
Codec ID/Info                            : UTF-8 Plain Text
Duration                                 : 1 h 45 min
Bit rate                                 : 80 b/s
Count of elements                        : 1902
Stream size                              : 62.4 KiB (0%)
Title                                    : Orijinal Dil - Filmbol.org
Language                                 : English
Default                                  : No
Forced                                   : No

Text #3
ID                                       : 5
Format                                   : PGS
Muxing mode                              : zlib
Codec ID                                 : S_HDMV/PGS
Codec ID/Info                            : Picture based subtitle format used on BDs/HD-DVDs
Duration                                 : 1 h 45 min
Bit rate                                 : 58.5 kb/s
Count of elements                        : 4270
Stream size                              : 44.2 MiB (0%)
Title                                    : Orijinal Dil - Filmbol.org
Language                                 : English
Default                                  : No
Forced                                   : No

Menu
00:00:00.000                             : Chapter 01
00:05:09.100                             : Chapter 02
00:08:43.815                             : Chapter 03
00:14:29.702                             : Chapter 04
00:21:25.701                             : Chapter 05
00:24:06.028                             : Chapter 06
00:28:25.245                             : Chapter 07
00:34:21.810                             : Chapter 08
00:39:40.837                             : Chapter 09
00:44:10.731                             : Chapter 10
00:48:47.967                             : Chapter 11
00:52:47.748                             : Chapter 12
00:56:18.375                             : Chapter 13
01:00:17.739                             : Chapter 14
01:04:41.920                             : Chapter 15
01:09:13.816                             : Chapter 16
01:15:13.300                             : Chapter 17
01:19:14.083                             : Chapter 18
01:23:59.326                             : Chapter 19
01:28:06.406                             : Chapter 20
01:33:07.415                             : Chapter 21
01:39:19.954                             : Chapter 22
01:44:22.506                             : Chapter 23
01:46:13.993                             : Chapter 24

Film Detayları


 Gerçek Kahraman

 Gerçek Kahraman

 Gerçek Kahraman


Film Fragmanı


Film Detayları



Zip Şifresi: filmbol.org Aşağıdaki butona tıklayarak kopyalabilirsiniz.

Film Türkçe Altyazılıdır (Forced Değil). Altyazı dosyası Eklidir. İyi Seyirler...



Filmbol Cloud

Bunun için üzgünüz ancak, bu linke sadece premium üyeler erişebilir.




WWW
Şuan Offine!
Şuan Offine!
cumhurkurt Yeni Üye
*
Üye
  • Konular0
  • Mesajlar59
  • Rep puanı 0
tesekkürler, emeginize saglik
Şuan Offine!
Şuan Offine!
bylaw7 Yeni Üye
*
Üye
  • Konular0
  • Mesajlar1
  • Rep puanı 0
Teşekkürler.
Şuan Offine!
Şuan Offine!
GameKinq44 Yeni Üye
*
Üye
  • Konular0
  • Mesajlar2
  • Rep puanı 0
Teşekkürler.
Şuan Offine!
Şuan Offine!
fevkalbeşer Yeni Üye
*
Üye
  • Konular0
  • Mesajlar1
  • Rep puanı 0
Teşekkürler.
Şuan Offine!
Şuan Offine!
yusufdj Yeni Üye
*
Üye
  • Konular0
  • Mesajlar2
  • Rep puanı 0
Teşekkürler.
Şuan Offine!
Şuan Offine!
Esa Yeni Üye
*
Üye
  • Konular0
  • Mesajlar1
  • Rep puanı 0
Teşekkürler. Güzel hizmet emeğinize sağlık
Şuan Offine!
Şuan Offine!
mdmd41 Uzman Üye
**
Uzman Üye
  • Konular0
  • Mesajlar23
  • Rep puanı 0
Teşekkürler.
Şuan Online!
Şuan Online!
mstfzcn Yeni Üye
*
Üye
  • Konular0
  • Mesajlar5
  • Rep puanı 0
Teşekkürler.


Hızlı Menü: