Filmbol Forum Film İndir BRRip XviD v Gördüğüm Gibi (The Way I See It) - 2020 - TR - BRRip XviD | tt11290556
Bildirimi Kapat
Server kaynaklı problemden dolayı ciddi bir sorun yaşadık. Şuanda forum ve portal aktif halde ancak bazı problemler hala devam ediyor. Problem gördüğünüz yerleri bize bildirmeniz çok önemli. Teşekkürler.

Bildirimi Kapat
Merhaba , site giderlerini bir nebze olsun karşılamak adına link kısaltma servisleri kullanmaya başladık. İndirme linkleri sizi ouo.io adresinde yönlendirecek, 3 saniye geçtikten sonra Get Link butonuna tıklayarak linke ulaşacaksınız. Premium üyeler bu durumdan etkilenmeyecektir.


Premium Üyelik Al

Gördüğüm Gibi (The Way I See It) - 2020 - TR - BRRip XviD | tt11290556
BroserBros
Gördüğüm Gibi (The Way I See It) - 2020 - TR - BRRip XviD | tt11290556
0
29
  • Derecelendirme: 0/5 - 0 oy
  • 1
  • 2
  • 3
  • 4
  • 5
Konuyu Okuyanlar:2 Ziyaretçi
Şuan Online!
Filmin Yayınlanma Tarihi: 2020 
Şuan Online!
BroserBros Kurucu Admin
*******
Admin


 Gördüğüm Gibi



Belgeselde, Beyaz Saray'da görev yapan fotoğrafı fotoğrafçı Pete Souza'nın gözünden Beyaz Saray ve içindekilere bir yolculuk gerçekleştiriliyor.

Gördüğüm Gibi (2020) (The Way I See It) | tt11290556 Filmi Imdb'den 2,000 kişi tarafından oylandı ve 8,3 puan aldı. Bu film için editör puanı %69 olarak belirlendi. İyi Seyirler!

Teknik Detaylar

Kod :
General
Complete name                            : C:\Users\Administrator\Desktop\1\Gördüğüm.Gibi.2020.BRRip.XviD.TR.Filmbol.avi
Format                                   : AVI
Format/Info                              : Audio Video Interleave
File size                                : 736 MiB
Duration                                 : 1 h 41 min
Overall bit rate                         : 1 014 kb/s

Video
ID                                       : 0
Format                                   : MPEG-4 Visual
Format profile                           : Advanced [email protected]
Format settings                          : BVOP2
Format settings, BVOP                    : 2
Format settings, QPel                    : No
Format settings, GMC                     : No warppoints
Format settings, Matrix                  : Default (H.263)
Codec ID                                 : XVID
Codec ID/Hint                            : XviD
Duration                                 : 1 h 41 min
Bit rate                                 : 873 kb/s
Width                                    : 574 pixels
Height                                   : 320 pixels
Display aspect ratio                     : 16:9
Frame rate                               : 23.976 (24000/1001) FPS
Color space                              : YUV
Chroma subsampling                       : 4:2:0
Bit depth                                : 8 bits
Scan type                                : Progressive
Compression mode                         : Lossy
Bits/(Pixel*Frame)                       : 0.198
Stream size                              : 634 MiB (86%)
Writing library                          : XviD 67

Audio
ID                                       : 1
Format                                   : MPEG Audio
Format version                           : Version 1
Format profile                           : Layer 3
Codec ID                                 : 55
Codec ID/Hint                            : MP3
Duration                                 : 1 h 41 min
Bit rate mode                            : Constant
Bit rate                                 : 128 kb/s
Channel(s)                               : 2 channels
Sampling rate                            : 48.0 kHz
Compression mode                         : Lossy
Stream size                              : 92.9 MiB (13%)
Alignment                                : Aligned on interleaves
Interleave, duration                     : 24  ms (0.58 video frame)

Film Detayları


 Gördüğüm Gibi

 Gördüğüm Gibi

 Gördüğüm Gibi


Film Fragmanı


Film İndir



Zip Şifresi: filmbol.org Aşağıdaki butona tıklayarak kopyalabilirsiniz.



Uptobox ile indir

1Fichier ile indir

1Fichier'den İndiremiyor musun? Tıklayın!






Filmbol Cloud

Bunun için üzgünüz ancak, bu linke sadece premium üyeler erişebilir.




WWW


Hızlı Menü: