Filmbol Forum Film İndir BRRip XviD v Mortal Kombat Legends: Battle of the Realms - 2021 - TR - BRRip XviD | tt14901058
Bildirimi Kapat
Server kaynaklı problemden dolayı ciddi bir sorun yaşadık. Şuanda forum ve portal aktif halde ancak bazı problemler hala devam ediyor. Problem gördüğünüz yerleri bize bildirmeniz çok önemli. Teşekkürler.

Bildirimi Kapat
Merhaba , site giderlerini bir nebze olsun karşılamak adına link kısaltma servisleri kullanmaya başladık. İndirme linkleri sizi ouo.io adresinde yönlendirecek, 3 saniye geçtikten sonra Get Link butonuna tıklayarak linke ulaşacaksınız. Premium üyeler bu durumdan etkilenmeyecektir.


Premium Üyelik Al

Mortal Kombat Legends: Battle of the Realms - 2021 - TR - BRRip XviD | tt14901058
BroserBros
Mortal Kombat Legends: Battle of the Realms - 2021 - TR - BRRip XviD | tt14901058
2
63
  • Derecelendirme: 0/5 - 0 oy
  • 1
  • 2
  • 3
  • 4
  • 5
Konuyu Okuyanlar:1 Ziyaretçi
Şuan Online!
Filmin Yayınlanma Tarihi: 2021 
Şuan Online!
BroserBros Kurucu Admin
*******
Admin


 Mortal Kombat Legends: Battle of the Realms



İlk filmin de başında olan Ethan Spaulding, filmin yönetmenlik koltuğunda oturuyor. Mortal Kombat Legends: Battle of the Realms, Scorpion’s Revenge’ın hemen sonrasını konu alacak. Shao Kahn’ın güçlerine karşı çalışan kahramanları bir araya toplayan Raiden, krallıkların kaderini belirleyecek son bir Ölümcül Dövüş için uğraşacak.

Mortal Kombat Legends: Battle of the Realms (2021) | tt14901058 Filmi Imdb'den 3,500 kişi tarafından oylandı ve 6,7 puan aldı. Bu film için editör puanı %66 olarak belirlendi. İyi Seyirler!

Teknik Detaylar

Kod :
General
Complete name                            : C:\Users\Administrator\Desktop\3\Mortal.Combat.Legends.Of.The.Realms.2021.BRRip.XviD.TR.Filmbol.avi
Format                                   : AVI
Format/Info                              : Audio Video Interleave
File size                                : 740 MiB
Duration                                 : 1 h 19 min
Overall bit rate                         : 1 296 kb/s

Video
ID                                       : 0
Format                                   : MPEG-4 Visual
Format profile                           : Advanced [email protected]
Format settings                          : BVOP2
Format settings, BVOP                    : 2
Format settings, QPel                    : No
Format settings, GMC                     : No warppoints
Format settings, Matrix                  : Default (H.263)
Codec ID                                 : XVID
Codec ID/Hint                            : XviD
Duration                                 : 1 h 19 min
Bit rate                                 : 1 155 kb/s
Width                                    : 574 pixels
Height                                   : 320 pixels
Display aspect ratio                     : 16:9
Frame rate                               : 23.976 (24000/1001) FPS
Color space                              : YUV
Chroma subsampling                       : 4:2:0
Bit depth                                : 8 bits
Scan type                                : Progressive
Compression mode                         : Lossy
Bits/(Pixel*Frame)                       : 0.262
Stream size                              : 659 MiB (89%)
Writing library                          : XviD 67

Audio
ID                                       : 1
Format                                   : MPEG Audio
Format version                           : Version 1
Format profile                           : Layer 3
Codec ID                                 : 55
Codec ID/Hint                            : MP3
Duration                                 : 1 h 19 min
Bit rate mode                            : Constant
Bit rate                                 : 128 kb/s
Channel(s)                               : 2 channels
Sampling rate                            : 48.0 kHz
Compression mode                         : Lossy
Stream size                              : 73.1 MiB (10%)
Alignment                                : Aligned on interleaves
Interleave, duration                     : 24  ms (0.58 video frame)
Writing library                          : LAMEª%ʛqÉdiGR©Èn°¬

Film Detayları


 Mortal Kombat Legends: Battle of the Realms

 Mortal Kombat Legends: Battle of the Realms

 Mortal Kombat Legends: Battle of the Realms


Film Fragmanı


Film İndir



Zip Şifresi: filmbol.org Aşağıdaki butona tıklayarak kopyalabilirsiniz.



Uptobox ile indir

1Fichier ile indir

1Fichier'den İndiremiyor musun? Tıklayın!






Filmbol Cloud

Bunun için üzgünüz ancak, bu linke sadece premium üyeler erişebilir.




WWW
Şuan Online!
Şuan Online!
Casablanca Yeni Üye
*
Üye
  • Konular0
  • Mesajlar47
  • Rep puanı 0
Teşekkürler.
Şuan Offine!
Şuan Offine!
bl4d378 Yeni Üye
*
Üye
  • Konular0
  • Mesajlar3
  • Rep puanı 0
Teşekkürler.


Hızlı Menü: