Filmbol Forum Film İndir BRRip XviD v Şanslı Gün (Lucky Day) - 2019 - TR - BRRip XviD | tt7248248
Bildirimi Kapat
Server kaynaklı problemden dolayı ciddi bir sorun yaşadık. Şuanda forum ve portal aktif halde ancak bazı problemler hala devam ediyor. Problem gördüğünüz yerleri bize bildirmeniz çok önemli. Teşekkürler.

Bildirimi Kapat
Merhaba , site giderlerini bir nebze olsun karşılamak adına link kısaltma servisleri kullanmaya başladık. İndirme linkleri sizi ouo.io adresinde yönlendirecek, 3 saniye geçtikten sonra Get Link butonuna tıklayarak linke ulaşacaksınız. Premium üyeler bu durumdan etkilenmeyecektir.


Premium Üyelik Al

Şanslı Gün (Lucky Day) - 2019 - TR - BRRip XviD | tt7248248
BroserBros
Şanslı Gün (Lucky Day) - 2019 - TR - BRRip XviD | tt7248248
0
15
  • Derecelendirme: 0/5 - 0 oy
  • 1
  • 2
  • 3
  • 4
  • 5
Konuyu Okuyanlar:1 Ziyaretçi
Şuan Online!
Filmin Yayınlanma Tarihi: 2019 
Şuan Online!
BroserBros Kurucu Admin
*******
Admin


 Şanslı Gün



Lucky Day, intikam ardındaki suikastçıdan ailesini muhafaza etmeye çalışan eski bir mahkumun öyküsünü mevzu ediyor. Red, kasa açma alanında uzman olan bir adamdır. Senelerdir hapiste olan Red, hapisten çıktığı biçiminde soluğu ailesinin yanında alır. Red, çok özlediği karısı ve artık bir genç kız olan kızı ile seneler sonra yine bir arada olmanın mutluluğunu yaşar. Ancak bu mutluluk kısa sürecektir. Red, yapmış olduğu son iş esnasında Luc adındaki bir suikastçının kardeşinin ölümüne neden olur. İntikam peşindeki Luc, Red’in hapisten çıktığını öğrenince onun peşine düşer. Peşine düşen Luc’dan haberi olmayan Red’in tek derdi sakladığı paraların yerini bulmaktır. Red, kendine adım adım yaklaşmakta olan Luc’u öğrenince bir taraftan ailesini kurtarmak bir taraftan da sakladığı paraların yerini bulmak için sıkıntılı bir mücadeleye girişir. Yönetmen koltuğunda Roger Avary’nin oturduğu filmimizde Red karakterine Luke Bracey yaşam veriyor. Yönetmenin senaryosunu da kaleme aldığı yapımın kadrosunda Crispin Glover, Nina Dobrev, David Hewlet, Clé Bennett, Josie Ho gibi adlar yer ediniyor.

Şanslı Gün (2019) (Lucky Day) | tt7248248 Filmi Imdb'den 2,500 kişi tarafından oylandı ve 5,1 puan aldı. Bu film için editör puanı %59 olarak belirlendi. İyi Seyirler!

Teknik Detaylar

Kod :
General
Complete name                            : C:\Users\Administrator\Desktop\5\Lucky.Day.2019.BRRip.XviD.TR.Filmbol.avi
Format                                   : AVI
Format/Info                              : Audio Video Interleave
File size                                : 689 MiB
Duration                                 : 275 h
Overall bit rate                         : 5 838 b/s

Video
ID                                       : 0
Format                                   : MPEG-4 Visual
Format profile                           : Advanced [email protected]
Format settings                          : BVOP2
Format settings, BVOP                    : 2
Format settings, QPel                    : No
Format settings, GMC                     : No warppoints
Format settings, Matrix                  : Default (H.263)
Codec ID                                 : XVID
Codec ID/Hint                            : XviD
Duration                                 : 1 h 39 min
Bit rate                                 : 696 kb/s
Width                                    : 766 pixels
Height                                   : 320 pixels
Display aspect ratio                     : 2.40:1
Frame rate                               : 23.976 (24000/1001) FPS
Color space                              : YUV
Chroma subsampling                       : 4:2:0
Bit depth                                : 8 bits
Scan type                                : Progressive
Compression mode                         : Lossy
Bits/(Pixel*Frame)                       : 0.118
Stream size                              : 494 MiB (72%)
Writing library                          : XviD 67

Audio #1
ID                                       : 1
Format                                   : MPEG Audio
Format version                           : Version 1
Format profile                           : Layer 3
Codec ID                                 : 55
Codec ID/Hint                            : MP3
Duration                                 : 1 h 39 min
Bit rate mode                            : Constant
Bit rate                                 : 128 kb/s
Channel(s)                               : 2 channels
Sampling rate                            : 44.1 kHz
Compression mode                         : Lossy
Stream size                              : 90.9 MiB (13%)
Alignment                                : Aligned on interleaves
Interleave, duration                     : 26  ms (0.63 video frame)
Writing library                          : LAME3.100

Audio #2
ID                                       : 2
Format                                   : AAC LC
Format/Info                              : Advanced Audio Codec Low Complexity
Codec ID                                 : FF-2
Duration                                 : 275 h
Source duration                          : 1 h 38 min
Bit rate                                 : 125 kb/s
Channel(s)                               : 2 channels
Channel layout                           : L R
Sampling rate                            : 48.0 kHz
Frame rate                               : 46.875 FPS (1024 SPF)
Compression mode                         : Lossy
Stream size                              : 88.5 MiB (13%)
Alignment                                : Split across interleaves
Interleave, duration                     : 21  ms (0.51 video frame)

Film Detayları


 Şanslı Gün

 Şanslı Gün

 Şanslı Gün


Film Fragmanı


Film İndir



Zip Şifresi: filmbol.org Aşağıdaki butona tıklayarak kopyalabilirsiniz.



Uptobox ile indir

1Fichier ile indir

1Fichier'den İndiremiyor musun? Tıklayın!






Filmbol Cloud

Bunun için üzgünüz ancak, bu linke sadece premium üyeler erişebilir.




WWW


Hızlı Menü: