⤤ Premium'a Yükselt
Filmbol Forum Film İndir 1080P v Kemik Balta (Bone Tomahawk) - 2015 - TR+ORG - 1080P | tt2494362

Filmbol TV kullanıma açıldı. Bu adresten giriş yapabilirsin: Giriş





Kemik Balta (Bone Tomahawk) - 2015 - TR+ORG - 1080P | tt2494362
BroserBros
Kemik Balta (Bone Tomahawk) - 2015 - TR+ORG - 1080P | tt2494362
12
2317
  • Derecelendirme: 0/5 - 0 oy
  • 1
  • 2
  • 3
  • 4
  • 5
Konuyu Okuyanlar:1 Ziyaretçi
Şuan Online!
Filmin Yayınlanma Tarihi: 2015 
WWW
Rapor Et!
Şuan Online!
BroserBros Kurucu Admin
*******
Admin



 Kemik Balta



Dört cesur adamın, bir grup esiri, yamyam bir kabilenin elinden kurtarma girişimini anlatacak olan film, eski usül western konseptine de fazlasıyla yakın duran bir görsel estetiğe ve öykü evrenine sahip olacak gibi görünüyor!

Kemik Balta (2015) | tt2494362 Filmi Imdb'den 100,000 kişi tarafından oylandı ve 7,1 puan aldı. Bu film için editör puanı %76 olarak belirlendi. İyi Seyirler!

Teknik Detaylar

Kod :
General
Unique ID                                : 188218174750995394983064619510694883990 (0x8D99807B68ED2D904070CEFE9AC33296)
Complete name                            : C:\Users\Administrator\Desktop\2\Kemik.Balta.2016.1080p.BluRay.x264.TR.ENG.Filmbol.mkv
Format                                   : Matroska
Format version                           : Version 4
File size                                : 3.19 GiB
Duration                                 : 2 h 12 min
Overall bit rate                         : 3 460 kb/s
Movie name                               : Kemik Balta - Bone Tomehawk - 2015 | Filmbol.org
Encoded date                             : UTC 2021-08-01 11:44:14
Writing application                      : mkvmerge v59.0.0 ('Shining Star') 64-bit
Writing library                          : libebml v1.4.2 + libmatroska v1.6.4

Video
ID                                       : 1
Format                                   : AVC
Format/Info                              : Advanced Video Codec
Format profile                           : [email protected]
Format settings                          : CABAC / 5 Ref Frames
Format settings, CABAC                   : Yes
Format settings, Reference frames        : 5 frames
Codec ID                                 : V_MPEG4/ISO/AVC
Duration                                 : 2 h 12 min
Bit rate                                 : 2 850 kb/s
Width                                    : 1 920 pixels
Height                                   : 804 pixels
Display aspect ratio                     : 2.40:1
Frame rate mode                          : Constant
Frame rate                               : 23.976 (24000/1001) FPS
Color space                              : YUV
Chroma subsampling                       : 4:2:0
Bit depth                                : 8 bits
Scan type                                : Progressive
Bits/(Pixel*Frame)                       : 0.077
Stream size                              : 2.63 GiB (82%)
Title                                    : 1080P - Filmbol.org
Writing library                          : x264 core 146 r2538 121396c
Encoding settings                        : cabac=1 / ref=5 / deblock=1:-1:-1 / analyse=0x3:0x133 / me=umh / subme=7 / psy=1 / psy_rd=1.00:0.00 / mixed_ref=1 / me_range=30 / chroma_me=1 / trellis=1 / 8x8dct=1 / cqm=2 / deadzone=21,11 / fast_pskip=0 / chroma_qp_offset=-2 / threads=12 / lookahead_threads=3 / sliced_threads=0 / slices=4 / nr=0 / decimate=1 / interlaced=0 / bluray_compat=0 / constrained_intra=0 / bframes=5 / b_pyramid=2 / b_adapt=2 / b_bias=0 / direct=3 / weightb=1 / open_gop=0 / weightp=2 / keyint=240 / keyint_min=23 / scenecut=40 / intra_refresh=0 / rc_lookahead=50 / rc=2pass / mbtree=1 / bitrate=2850 / ratetol=1.0 / qcomp=0.60 / qpmin=1 / qpmax=69 / qpstep=4 / cplxblur=20.0 / qblur=0.5 / vbv_maxrate=62500 / vbv_bufsize=78125 / nal_hrd=none / filler=0 / ip_ratio=1.40 / aq=1:1.00
Language                                 : English
Default                                  : Yes
Forced                                   : No

Audio #1
ID                                       : 2
Format                                   : AC-3
Format/Info                              : Audio Coding 3
Commercial name                          : Dolby Digital
Codec ID                                 : A_AC3
Duration                                 : 2 h 12 min
Bit rate mode                            : Constant
Bit rate                                 : 224 kb/s
Channel(s)                               : 2 channels
Channel layout                           : L R
Sampling rate                            : 48.0 kHz
Frame rate                               : 31.250 FPS (1536 SPF)
Compression mode                         : Lossy
Stream size                              : 212 MiB (6%)
Title                                    : Türkçe - Filmbol.org
Language                                 : Turkish
Service kind                             : Complete Main
Default                                  : Yes
Forced                                   : No

Audio #2
ID                                       : 3
Format                                   : AC-3
Format/Info                              : Audio Coding 3
Commercial name                          : Dolby Digital
Codec ID                                 : A_AC3
Duration                                 : 2 h 12 min
Bit rate mode                            : Constant
Bit rate                                 : 384 kb/s
Channel(s)                               : 2 channels
Channel layout                           : L R
Sampling rate                            : 48.0 kHz
Frame rate                               : 31.250 FPS (1536 SPF)
Compression mode                         : Lossy
Stream size                              : 363 MiB (11%)
Title                                    : Orijinal Dil - Filmbol.org
Language                                 : English
Service kind                             : Complete Main
Default                                  : Yes
Forced                                   : No

Text
ID                                       : 4
Format                                   : UTF-8
Codec ID                                 : S_TEXT/UTF8
Codec ID/Info                            : UTF-8 Plain Text
Duration                                 : 2 h 3 min
Bit rate                                 : 44 b/s
Count of elements                        : 1020
Stream size                              : 40.0 KiB (0%)
Title                                    : Türkçe - Filmbol.org
Language                                 : Turkish
Default                                  : No
Forced                                   : No

Film Detayları


 Kemik Balta

 Kemik Balta

 Kemik Balta


Film Fragmanı


Film İndir


Rar Şifresi: filmbol.org


Uptobox ile indir

1Fichier ile indir

1Fichier'den İndiremiyor musun? Tıklayın!












Şuan Offine!
Rapor Et!
Şuan Offine!
burukalibey Uzman Üye
**
Uzman Üye
  • Konular0
  • Mesajlar9
  • Rep puanı 0
western filmlerini severim
Şuan Offine!
Rapor Et!
Şuan Offine!
ORHun Cezalı Üye
  • Konular0
  • Mesajlar31
+++++++++++++++++
Şuan Offine!
Rapor Et!
Şuan Offine!
Nigar Cezalı Üye
  • Konular0
  • Mesajlar3
Nicin indiremiyorum

Ben cok anlamiyorum film nasil indiricem

Indirmeye calistiginiz dosya artık erisebilir deil diyor
Şuan Offine!
Rapor Et!
Şuan Offine!
ahmettepe Üye
*
Üye
  • Konular0
  • Mesajlar65
  • Rep puanı 1
mega link kırık bilginize.
Şuan Online!
Rapor Et!
Şuan Online!
BroserBros Kurucu Admin
*******
Admin
(31-07-2021, Saat: 12:15)ahmettepe Adlı Kullanıcıdan Alıntı: mega link kırık bilginize.

Bildirim için teşekkürler. Yakın bir zamanda yenilenecek.
Şuan Online!
Rapor Et!
Şuan Online!
BroserBros Kurucu Admin
*******
Admin
03.08.2021 Yönetici Notu:

Kırık linkler kontrol edildi, kaldırıldı ve yenilendi. Tüm linkler tamamen çalışır durumda. @ahmettepe
Şuan Offine!
Rapor Et!
Şuan Offine!
o.boran Üye
*
Üye
  • Konular0
  • Mesajlar75
  • Rep puanı 0
Teşekkürler.
Şuan Offine!
Rapor Et!
Şuan Offine!
manyeto Premium Üye
****
  • Konular1
  • Mesajlar20
  • Rep puanı 9
Teşekkürler.
Şuan Online!
Rapor Et!
Şuan Online!
neco52 Uzman Üye
**
Uzman Üye
  • Konular0
  • Mesajlar275
  • Rep puanı 0
Teşekkürler.


Hızlı Menü: