Filmbol Forum Film İndir BRRip XviD v Schumacher - 2021 - TR - BRRip XviD | tt10322274
Bildirimi Kapat
Server kaynaklı problemden dolayı ciddi bir sorun yaşadık. Şuanda forum ve portal aktif halde ancak bazı problemler hala devam ediyor. Problem gördüğünüz yerleri bize bildirmeniz çok önemli. Teşekkürler.

Bildirimi Kapat
Merhaba , site giderlerini bir nebze olsun karşılamak adına link kısaltma servisleri kullanmaya başladık. İndirme linkleri sizi ouo.io adresinde yönlendirecek, 3 saniye geçtikten sonra Get Link butonuna tıklayarak linke ulaşacaksınız. Premium üyeler bu durumdan etkilenmeyecektir.


Premium Üyelik Al

Schumacher - 2021 - TR - BRRip XviD | tt10322274
BroserBros
Schumacher - 2021 - TR - BRRip XviD | tt10322274
0
29
  • Derecelendirme: 0/5 - 0 oy
  • 1
  • 2
  • 3
  • 4
  • 5
Konuyu Okuyanlar:1 Ziyaretçi
Şuan Online!
Filmin Yayınlanma Tarihi: 2021 
Şuan Online!
BroserBros Kurucu Admin
*******
Admin


 Schumacher



Eğer Formuna 1 yarışlarını izliyorsanız, kuşkusuz ki Michael Schumacher ismini duydunuz. Çünkü Michael Schumacher tam 7 kez dünya şampiyonu olmuş bir F1 efsanesi. Filmin ana teması ise tabii ki bu efsanenin hayat öyküsü. Michael Schumacher nasıl ve neden bu kadar başarılı olabildi? Buraya gelmek için neler feda etti ve neler kazandı? Belgesel tadında olan bu film, 2021 tarih damgalı.

Filmin oyuncu kadrosunda belgesel olarak Michael Schumacher, Jean Todt, Sebastian Vettel yer alırken yönetmenleri ise Hanns-Bruno Kammertöns, Vanessa Nöcker ve Michael Wech

Schumacher (2021) | tt10322274 Filmi Imdb'den 10,000 kişi tarafından oylandı ve 7,7 puan aldı. Bu film için editör puanı %81 olarak belirlendi. İyi Seyirler!

Teknik Detaylar

Kod :
General
Complete name                            : C:\Users\Administrator\Desktop\8\Schumacher.2021.BRRip.XviD.TR.Filmbol.avi
Format                                   : AVI
Format/Info                              : Audio Video Interleave
File size                                : 1.10 GiB
Duration                                 : 1 h 52 min
Overall bit rate                         : 1 395 kb/s

Video
ID                                       : 0
Format                                   : MPEG-4 Visual
Format profile                           : Advanced [email protected]
Format settings                          : BVOP2
Format settings, BVOP                    : 2
Format settings, QPel                    : No
Format settings, GMC                     : No warppoints
Format settings, Matrix                  : Default (H.263)
Codec ID                                 : XVID
Codec ID/Hint                            : XviD
Duration                                 : 1 h 52 min
Bit rate                                 : 1 253 kb/s
Width                                    : 574 pixels
Height                                   : 320 pixels
Display aspect ratio                     : 16:9
Frame rate                               : 25.000 FPS
Color space                              : YUV
Chroma subsampling                       : 4:2:0
Bit depth                                : 8 bits
Scan type                                : Progressive
Compression mode                         : Lossy
Bits/(Pixel*Frame)                       : 0.273
Stream size                              : 1 009 MiB (90%)
Writing library                          : XviD 67

Audio
ID                                       : 1
Format                                   : MPEG Audio
Format version                           : Version 1
Format profile                           : Layer 3
Codec ID                                 : 55
Codec ID/Hint                            : MP3
Duration                                 : 1 h 52 min
Bit rate mode                            : Constant
Bit rate                                 : 128 kb/s
Channel(s)                               : 2 channels
Sampling rate                            : 48.0 kHz
Compression mode                         : Lossy
Stream size                              : 103 MiB (9%)
Alignment                                : Aligned on interleaves
Interleave, duration                     : 24  ms (0.60 video frame)
Writing library                          : LAME3.100

Film Detayları


 Schumacher

 Schumacher

 Schumacher


Film Fragmanı


Film İndir



Zip Şifresi: filmbol.org Aşağıdaki butona tıklayarak kopyalabilirsiniz.



Uptobox ile indir

1Fichier ile indir

1Fichier'den İndiremiyor musun? Tıklayın!






Filmbol Cloud

Bunun için üzgünüz ancak, bu linke sadece premium üyeler erişebilir.




WWW


Hızlı Menü: