Filmbol Forum Film İndir 720P v Şeker Adam'ın Laneti (Candyman) - 2021 - Türkçe Altyazı! - 720P | tt9347730
Bildirimi Kapat
Server kaynaklı problemden dolayı ciddi bir sorun yaşadık. Şuanda forum ve portal aktif halde ancak bazı problemler hala devam ediyor. Problem gördüğünüz yerleri bize bildirmeniz çok önemli. Teşekkürler.

Bildirimi Kapat
Merhaba , site giderlerini bir nebze olsun karşılamak adına link kısaltma servisleri kullanmaya başladık. İndirme linkleri sizi ouo.io adresinde yönlendirecek, 3 saniye geçtikten sonra Get Link butonuna tıklayarak linke ulaşacaksınız. Premium üyeler bu durumdan etkilenmeyecektir.


Premium Üyelik Al

Şeker Adam'ın Laneti (Candyman) - 2021 - Türkçe Altyazı! - 720P | tt9347730
BroserBros
Şeker Adam'ın Laneti (Candyman) - 2021 - Türkçe Altyazı! - 720P | tt9347730
1
59
  • Derecelendirme: 0/5 - 0 oy
  • 1
  • 2
  • 3
  • 4
  • 5
Konuyu Okuyanlar:1 Ziyaretçi
Şuan Online!
Filmin Yayınlanma Tarihi: 2021 
Şuan Online!
BroserBros Kurucu Admin
*******
Admin


 Şeker Adam'ın Laneti



Uzun bir serisi olan Candyman'ın 2021 yapımı devam filmi olan Şeker Adam'ın Laneti, vizyona girdiği andan itibaren bir çok kişinin ilgisini çekmeyi başardı. İlk filmin (1992) ardından 29 sene geçmesine rağmen, Candyman korku severler için her zaman izlemeye layık.

Şeker Adamın Laneti konu olarak eski filmden çok farklı değil, ancak üzerinden uzun bir zaman geçtiğinden dolayı insanlar artık Şeker Adam'dan korkmamaya başlar. Üniversiteli bir genç ise tezinde bu batıl inancın gerçek olmadığını kanıtlamak için girişimlerde bulunur. Rivayete göre Şeker Adamı çağırmanın yolu aynanın karşısına geçip beş kere Candyman demektir. Genç tezini hazırlar, işleme başlar ve aynanın karşısına geçip beş kere bu kelimeyi söyler. Ardından yaşananlar ise onun pişman olmasına sebep olacaktır...

Korku ve hafif gerilim tadında olan bu filmin oyuncu kadrosunda Yahya Abdul-Mateen II, Teyonah Parris, Nathan Stewart-Jarrett gibi yıldızlar bulurken yönetmen koltuğuna oturan isim Nia DaCosta.

Şeker Adam'ın Laneti (2021) (Candyman) | tt9347730 Filmi Imdb'den 25,000 kişi tarafından oylandı ve 6,1 puan aldı. Bu film için editör puanı %69 olarak belirlendi. İyi Seyirler!

Teknik Detaylar

Kod :
General
Unique ID                                : 215442940740943361270289441785064359712 (0xA214CD141A1F2BEF2D95F88048028720)
Complete name                            : C:\Users\Administrator\Desktop\3\Şeker.Adamın.Laneti.2021.720p.BluRay.x264.Türkçe.Altyazı.Filmbol.mkv
Format                                   : Matroska
Format version                           : Version 4
File size                                : 834 MiB
Duration                                 : 1 h 31 min
Overall bit rate                         : 1 281 kb/s
Movie name                               : Şeker Adamın Laneti - Candyman - 2021 | Filmbol.org
Encoded date                             : UTC 2021-09-21 13:53:35
Writing application                      : mkvmerge v61.0.0 ('So') 64-bit
Writing library                          : libebml v1.4.2 + libmatroska v1.6.4

Video
ID                                       : 1
Format                                   : AVC
Format/Info                              : Advanced Video Codec
Format profile                           : [email protected]
Format settings                          : CABAC / 4 Ref Frames
Format settings, CABAC                   : Yes
Format settings, Reference frames        : 4 frames
Codec ID                                 : V_MPEG4/ISO/AVC
Duration                                 : 1 h 31 min
Bit rate                                 : 1 150 kb/s
Width                                    : 1 280 pixels
Height                                   : 538 pixels
Display aspect ratio                     : 2.40:1
Original display aspect ratio            : 2.40:1
Frame rate mode                          : Constant
Frame rate                               : 23.976 (24000/1001) FPS
Color space                              : YUV
Chroma subsampling                       : 4:2:0
Bit depth                                : 8 bits
Scan type                                : Progressive
Bits/(Pixel*Frame)                       : 0.070
Stream size                              : 749 MiB (90%)
Title                                    : 720P - Filmbol.org
Writing library                          : x264 core 161
Encoding settings                        : cabac=1 / ref=4 / deblock=1:-1:-1 / analyse=0x3:0x133 / me=umh / subme=9 / psy=1 / psy_rd=1.00:0.15 / mixed_ref=1 / me_range=24 / chroma_me=1 / trellis=2 / 8x8dct=1 / cqm=0 / deadzone=21,11 / fast_pskip=0 / chroma_qp_offset=-3 / threads=17 / lookahead_threads=1 / sliced_threads=0 / nr=0 / decimate=1 / interlaced=0 / bluray_compat=0 / constrained_intra=0 / bframes=3 / b_pyramid=2 / b_adapt=2 / b_bias=0 / direct=3 / weightb=1 / open_gop=0 / weightp=2 / keyint=250 / keyint_min=23 / scenecut=40 / intra_refresh=0 / rc_lookahead=60 / rc=2pass / mbtree=1 / bitrate=1150 / ratetol=1.0 / qcomp=0.60 / qpmin=0 / qpmax=69 / qpstep=4 / cplxblur=20.0 / qblur=0.5 / vbv_maxrate=31250 / vbv_bufsize=31250 / nal_hrd=none / filler=0 / ip_ratio=1.40 / aq=1:1.00
Default                                  : Yes
Forced                                   : No
Color range                              : Limited
Color primaries                          : BT.709
Transfer characteristics                 : BT.709
Matrix coefficients                      : BT.709

Audio
ID                                       : 2
Format                                   : AAC LC
Format/Info                              : Advanced Audio Codec Low Complexity
Codec ID                                 : A_AAC-2
Duration                                 : 1 h 31 min
Bit rate                                 : 128 kb/s
Channel(s)                               : 2 channels
Channel layout                           : L R
Sampling rate                            : 48.0 kHz
Frame rate                               : 46.875 FPS (1024 SPF)
Compression mode                         : Lossy
Delay relative to video                  : -21 ms
Stream size                              : 83.5 MiB (10%)
Title                                    : Orijinal  Dil - Filmbol.org
Language                                 : English
Default                                  : Yes
Forced                                   : No

Text #1
ID                                       : 3
Format                                   : UTF-8
Codec ID                                 : S_TEXT/UTF8
Codec ID/Info                            : UTF-8 Plain Text
Duration                                 : 1 h 25 min
Bit rate                                 : 49 b/s
Count of elements                        : 1139
Stream size                              : 31.0 KiB (0%)
Title                                    : Türkçe - Filmbol.org
Language                                 : Turkish
Default                                  : Yes
Forced                                   : Yes

Text #2
ID                                       : 4
Format                                   : UTF-8
Codec ID                                 : S_TEXT/UTF8
Codec ID/Info                            : UTF-8 Plain Text
Duration                                 : 1 h 26 min
Bit rate                                 : 57 b/s
Count of elements                        : 1257
Stream size                              : 36.3 KiB (0%)
Title                                    : Orijinal Dil - Filmbol.org
Language                                 : English
Default                                  : No
Forced                                   : No

Film Detayları


 Şeker Adam'ın Laneti

 Şeker Adam'ın Laneti

 Şeker Adam'ın Laneti


Film Fragmanı


Film Detayları



Zip Şifresi: filmbol.org Aşağıdaki butona tıklayarak kopyalabilirsiniz.

Film Türkçe Altyazılıdır (Forced Değil). Altyazı dosyası Eklidir. İyi Seyirler...

Uptobox ile indir

1Fichier ile indir

1Fichier'den İndiremiyor musun? Tıklayın!






Filmbol Cloud

Bunun için üzgünüz ancak, bu linke sadece premium üyeler erişebilir.




WWW
Şuan Offine!
Şuan Offine!
bytexsas Yeni Üye
*
Üye
  • Konular0
  • Mesajlar1
  • Rep puanı 0
Teşekkürler.


Hızlı Menü: