Filmbol Forum Film İndir BRRip XviD v Kahramanım Kovboylar (My Heroes Were Cowboys) - 2021 - TR - BRRip XviD | tt15084326
Bildirimi Kapat
Server kaynaklı problemden dolayı ciddi bir sorun yaşadık. Şuanda forum ve portal aktif halde ancak bazı problemler hala devam ediyor. Problem gördüğünüz yerleri bize bildirmeniz çok önemli. Teşekkürler.

Bildirimi Kapat
Merhaba , site giderlerini bir nebze olsun karşılamak adına link kısaltma servisleri kullanmaya başladık. İndirme linkleri sizi ouo.io adresinde yönlendirecek, 3 saniye geçtikten sonra Get Link butonuna tıklayarak linke ulaşacaksınız. Premium üyeler bu durumdan etkilenmeyecektir.


Premium Üyelik Al

Kahramanım Kovboylar (My Heroes Were Cowboys) - 2021 - TR - BRRip XviD | tt15084326
BroserBros
Kahramanım Kovboylar (My Heroes Were Cowboys) - 2021 - TR - BRRip XviD | tt15084326
0
22
  • Derecelendirme: 0/5 - 0 oy
  • 1
  • 2
  • 3
  • 4
  • 5
Konuyu Okuyanlar:1 Ziyaretçi
Şuan Online!
Filmin Yayınlanma Tarihi: 2021 
Şuan Online!
BroserBros Kurucu Admin
*******
Admin


 Kahramanım Kovboylar



Kovboy filmleri eskiden öyle hit alıyordu ki, o zamanların gençleri her zaman kovboylara özeniyordu. Fakat artık zaman değişti, yeni nesil kovboylara o kadar özenmese de, geçmiş zamanlarda özenmiş olan kişilerden birisi şimdi bir kovboy olmuş ve atları eğitmeye başlamıştır.

2021 yapımı bir kısa belgesel - film tadında olan Kahramanım Kovboylar yada diğer adı ile My Heroes Were Cowboys filminin oyuncu kadrosu Kate Wiltshire, Patrick Wiltshire, Robin Wiltshire ve yönetmeni Tyler Greco

Kahramanım Kovboylar (2021) (My Heroes Were Cowboys) | tt15084326 Filmi Imdb'den 1,000 kişi tarafından oylandı ve 7,8 puan aldı. Bu film için editör puanı %65 olarak belirlendi. İyi Seyirler!

Teknik Detaylar

Kod :
General
Complete name                            : C:\Users\Administrator\Desktop\6\Kahramanım.Kovboylar.2021.BRRip.XviD.TR.Filmbol.avi
Format                                   : AVI
Format/Info                              : Audio Video Interleave
File size                                : 217 MiB
Duration                                 : 23 min 1 s
Overall bit rate                         : 1 319 kb/s

Video
ID                                       : 0
Format                                   : MPEG-4 Visual
Format profile                           : Advanced [email protected]
Format settings                          : BVOP2
Format settings, BVOP                    : 2
Format settings, QPel                    : No
Format settings, GMC                     : No warppoints
Format settings, Matrix                  : Default (H.263)
Codec ID                                 : XVID
Codec ID/Hint                            : XviD
Duration                                 : 23 min 1 s
Bit rate                                 : 1 177 kb/s
Width                                    : 766 pixels
Height                                   : 320 pixels
Display aspect ratio                     : 2.40:1
Frame rate                               : 23.976 (24000/1001) FPS
Color space                              : YUV
Chroma subsampling                       : 4:2:0
Bit depth                                : 8 bits
Scan type                                : Progressive
Compression mode                         : Lossy
Bits/(Pixel*Frame)                       : 0.200
Stream size                              : 194 MiB (89%)
Writing library                          : XviD 67

Audio
ID                                       : 1
Format                                   : MPEG Audio
Format version                           : Version 1
Format profile                           : Layer 3
Codec ID                                 : 55
Codec ID/Hint                            : MP3
Duration                                 : 23 min 1 s
Bit rate mode                            : Constant
Bit rate                                 : 128 kb/s
Channel(s)                               : 2 channels
Sampling rate                            : 48.0 kHz
Compression mode                         : Lossy
Stream size                              : 21.1 MiB (10%)
Alignment                                : Aligned on interleaves
Interleave, duration                     : 24  ms (0.58 video frame)
Writing library                          : LAME3.100U / ÿþM­mÁ   ...: ò

Film Detayları


 Kahramanım Kovboylar

 Kahramanım Kovboylar

 Kahramanım Kovboylar


Film Fragmanı


Film İndir



Zip Şifresi: filmbol.org Aşağıdaki butona tıklayarak kopyalabilirsiniz.



Uptobox ile indir

1Fichier ile indir

1Fichier'den İndiremiyor musun? Tıklayın!






Filmbol Cloud

Bunun için üzgünüz ancak, bu linke sadece premium üyeler erişebilir.




WWW


Hızlı Menü: