Filmbol Forum Film İndir BRRip XviD v En Korkunç Masal (Nightbooks) - 2021 - TR - BRRip XviD | tt10521144
Bildirimi Kapat
Server kaynaklı problemden dolayı ciddi bir sorun yaşadık. Şuanda forum ve portal aktif halde ancak bazı problemler hala devam ediyor. Problem gördüğünüz yerleri bize bildirmeniz çok önemli. Teşekkürler.

Bildirimi Kapat
Merhaba , site giderlerini bir nebze olsun karşılamak adına link kısaltma servisleri kullanmaya başladık. İndirme linkleri sizi ouo.io adresinde yönlendirecek, 3 saniye geçtikten sonra Get Link butonuna tıklayarak linke ulaşacaksınız. Premium üyeler bu durumdan etkilenmeyecektir.


Premium Üyelik Al

En Korkunç Masal (Nightbooks) - 2021 - TR - BRRip XviD | tt10521144
BroserBros
En Korkunç Masal (Nightbooks) - 2021 - TR - BRRip XviD | tt10521144
0
34
  • Derecelendirme: 0/5 - 0 oy
  • 1
  • 2
  • 3
  • 4
  • 5
Konuyu Okuyanlar:3 Ziyaretçi
Şuan Online!
Filmin Yayınlanma Tarihi: 2021 
Şuan Online!
BroserBros Kurucu Admin
*******
Admin


 En Korkunç Masal



Alex bir yandan bir şeyler yazmayı seven ancak bir yandan da yazmaktan korkan küçük bir çocuktur. Bir şeyler yazmaktan korkmasını en büyük sebebi korku hikayeleridir. Korku hikayeleri yazmak ve okumak onun için imkansızdır. Fakat insan bu hayatta istemediği şeyler ile sınanır. Alex'de en korktuğu şeylerden biri olan En Korkunç Masal'ı yazmak zorunda kalacaktır.

Onu buna zorlayan şey şeytani güçleri olan bir cadıdır. Cadı Alex'i kaçırıp korkulu rüyası olan bir korkunç masal yazmaya zorlar. Alex ne yapacağını bilemese de, orada yalnız olmadığını ve bir kızında kendisi gibi zorla burada tutulduğunu anladığında işler kendisi için düzelmeye başlayacaktır...

2021 yapımı olan En Korkunç Masal yada diğer adı ile Nightbooks oyuncu kadrosunda Krysten Ritter, Lidya Jewett, Winslow Fegley gibi isimler bulundururken yönetmeni ise David Yarovesky.

En Korkunç Masal (2021) (Nightbooks) | tt10521144 Filmi Imdb'den 3,000 kişi tarafından oylandı ve 5,8 puan aldı. Bu film için editör puanı %62 olarak belirlendi. İyi Seyirler!

Teknik Detaylar

Kod :
General
Complete name                            : C:\Users\Administrator\Desktop\7\En.Korkunç.Masal.2021.BRRip.XviD.TR.Filmbol.avi
Format                                   : AVI
Format/Info                              : Audio Video Interleave
File size                                : 1.22 GiB
Duration                                 : 1 h 43 min
Overall bit rate                         : 1 691 kb/s
Movie name                               : filmbol.org
Writing application                      : VirtualDubMod 1.5.10.2 (build 2540/release)
Writing library                          : VirtualDubMod build 2540/release

Video
ID                                       : 0
Format                                   : MPEG-4 Visual
Format profile                           : Advanced [email protected]
Format settings                          : BVOP2 / Custom Matrix
Format settings, BVOP                    : 2
Format settings, QPel                    : No
Format settings, GMC                     : No warppoints
Format settings, Matrix                  : Custom
Codec ID                                 : XVID
Codec ID/Hint                            : XviD
Duration                                 : 1 h 43 min
Bit rate                                 : 1 554 kb/s
Width                                    : 720 pixels
Height                                   : 304 pixels
Display aspect ratio                     : 2.35:1
Frame rate                               : 23.976 (24000/1001) FPS
Color space                              : YUV
Chroma subsampling                       : 4:2:0
Bit depth                                : 8 bits
Scan type                                : Progressive
Compression mode                         : Lossy
Bits/(Pixel*Frame)                       : 0.296
Stream size                              : 1.12 GiB (92%)
Writing library                          : XviD 67

Audio
ID                                       : 1
Format                                   : MPEG Audio
Format version                           : Version 1
Format profile                           : Layer 3
Format settings                          : Joint stereo / MS Stereo
Codec ID                                 : 55
Codec ID/Hint                            : MP3
Duration                                 : 1 h 43 min
Bit rate mode                            : Constant
Bit rate                                 : 128 kb/s
Channel(s)                               : 2 channels
Sampling rate                            : 48.0 kHz
Compression mode                         : Lossy
Stream size                              : 94.5 MiB (8%)
Alignment                                : Aligned on interleaves
Interleave, duration                     : 42  ms (1.00 video frame)
Interleave, preload duration             : 504  ms
Writing library                          : LAME3.98.4
Language                                 : Belirsiz

Film Detayları


 En Korkunç Masal

 En Korkunç Masal

 En Korkunç Masal


Film Fragmanı


Film İndir



Zip Şifresi: filmbol.org Aşağıdaki butona tıklayarak kopyalabilirsiniz.



Uptobox ile indir

1Fichier ile indir

1Fichier'den İndiremiyor musun? Tıklayın!






Filmbol Cloud

Bunun için üzgünüz ancak, bu linke sadece premium üyeler erişebilir.




WWW


Hızlı Menü: