Filmbol Forum Film İndir BRRip XviD v Gitmesine İzin Ver (Let Him Go) - 2020 - TR - BRRip XviD | tt9340860
Bildirimi Kapat
Server kaynaklı problemden dolayı ciddi bir sorun yaşadık. Şuanda forum ve portal aktif halde ancak bazı problemler hala devam ediyor. Problem gördüğünüz yerleri bize bildirmeniz çok önemli. Teşekkürler.

Bildirimi Kapat
Merhaba , site giderlerini bir nebze olsun karşılamak adına link kısaltma servisleri kullanmaya başladık. İndirme linkleri sizi ouo.io adresinde yönlendirecek, 3 saniye geçtikten sonra Get Link butonuna tıklayarak linke ulaşacaksınız. Premium üyeler bu durumdan etkilenmeyecektir.


Premium Üyelik Al

Gitmesine İzin Ver (Let Him Go) - 2020 - TR - BRRip XviD | tt9340860
BroserBros
Gitmesine İzin Ver (Let Him Go) - 2020 - TR - BRRip XviD | tt9340860
0
44
  • Derecelendirme: 0/5 - 0 oy
  • 1
  • 2
  • 3
  • 4
  • 5
Konuyu Okuyanlar:1 Ziyaretçi
Şuan Online!
Filmin Yayınlanma Tarihi: 2020 
Şuan Online!
BroserBros Kurucu Admin
*******
Admin


 Gitmesine İzin Ver



Gitmesine İzin Ver yada diğer ismi ile Let Him Go filminin konusu ve özeti. George Blackledge hayatının sonuna yaklaşan emekli bir şeriftir. Hanımı Margaret ile uzun bir evlilikleri ve güzel bir ilişkileri vardır. Sadece tek çocuğu olan çiftin tüm beklentileri bu çocuktur. Yaşını almış olan bu genç adam, ani bir ölüm ile hem kendi ailesini hem de George ve Margaret'i şaşırtır.

George ve Margaret'in tek oğullarından olma çocukları, yani torunları ise kendilerinden çok uzaktadırlar. Torunlarını yanında görmek isteyen George ve Margaret ani bir karar ile torunlarını aramaya başlar. Fakat torunları büyük bir çetenin eline geçmiş ve kurtulmaları çok zordur. Şimdi bu çift için karar vaktidir, torunlarını kurtarmak için gerekirse savaşıp insan öldürecek yada çekip gideceklerdir. İkisinin de tercihi savaşmak olduğunda, aksiyon başlar...

2020 yapımı olan bu filmin oyun kadrosunda Diane Lane, Kevin Costner, Kayli Carter yer alırken yönetmen koltuğuna Thomas Bezucha oturuyor...

Gitmesine İzin Ver (2020) (Let Him Go) | tt9340860 Filmi Imdb'den 22,000 kişi tarafından oylandı ve 6,7 puan aldı. Bu film için editör puanı %69 olarak belirlendi. İyi Seyirler!

Teknik Detaylar

Kod :
General
Complete name                            : C:\Users\Administrator\Desktop\4\Gitmesine.İzin.Ver.2020.BRRip.XviD.TR.Filmbol.avi
Format                                   : AVI
Format/Info                              : Audio Video Interleave
File size                                : 600 MiB
Duration                                 : 1 h 53 min
Overall bit rate                         : 736 kb/s

Video
ID                                       : 0
Format                                   : MPEG-4 Visual
Format profile                           : Advanced [email protected]
Format settings                          : BVOP2
Format settings, BVOP                    : 2
Format settings, QPel                    : No
Format settings, GMC                     : No warppoints
Format settings, Matrix                  : Default (H.263)
Codec ID                                 : XVID
Codec ID/Hint                            : XviD
Duration                                 : 1 h 53 min
Bit rate                                 : 595 kb/s
Width                                    : 784 pixels
Height                                   : 320 pixels
Display aspect ratio                     : 2.450
Frame rate                               : 23.976 (24000/1001) FPS
Color space                              : YUV
Chroma subsampling                       : 4:2:0
Bit depth                                : 8 bits
Scan type                                : Progressive
Compression mode                         : Lossy
Bits/(Pixel*Frame)                       : 0.099
Stream size                              : 485 MiB (81%)
Writing library                          : XviD 67

Audio
ID                                       : 1
Format                                   : MPEG Audio
Format version                           : Version 1
Format profile                           : Layer 3
Codec ID                                 : 55
Codec ID/Hint                            : MP3
Duration                                 : 1 h 53 min
Bit rate mode                            : Constant
Bit rate                                 : 128 kb/s
Channel(s)                               : 2 channels
Sampling rate                            : 44.1 kHz
Compression mode                         : Lossy
Stream size                              : 104 MiB (17%)
Alignment                                : Aligned on interleaves
Interleave, duration                     : 26  ms (0.63 video frame)

Film Detayları


 Gitmesine İzin Ver

 Gitmesine İzin Ver

 Gitmesine İzin Ver


Film Fragmanı


Film İndir



Zip Şifresi: filmbol.org Aşağıdaki butona tıklayarak kopyalabilirsiniz.



Uptobox ile indir

1Fichier ile indir

1Fichier'den İndiremiyor musun? Tıklayın!






Filmbol Cloud

Bunun için üzgünüz ancak, bu linke sadece premium üyeler erişebilir.




WWW


Hızlı Menü: