⤤ Premium'a Yükselt

Merhaba, Ziyaretçi. Mega linklerinin bir kısmı deaktif halde ve yenileme çalışmalarına başladık. Bu süre içinde ikinci duyuruya kadar mega linklerini raporlamayın!! x

Filmbol Forum Film İndir UHD - ULTRA HD - 4K v Zootropolis: Hayvanlar Şehri (Zootopia) - 2016 - TR+ORG - UHD (4K) - 10Bit-x265 | tt2948356

Filmbol TV kullanıma açıldı. Bu adresten giriş yapabilirsin: Giriş





Zootropolis: Hayvanlar Şehri (Zootopia) - 2016 - TR+ORG - UHD (4K) - 10Bit-x265 | tt2948356
BroserBros
Zootropolis: Hayvanlar Şehri (Zootopia) - 2016 - TR+ORG - UHD (4K) - 10Bit-x265 | tt2948356
16
431
  • Derecelendirme: 0/5 - 0 oy
  • 1
  • 2
  • 3
  • 4
  • 5
Konuyu Okuyanlar:1 Ziyaretçi
Şuan Online!
Filmin Yayınlanma Tarihi: 2016 
WWW
Rapor Et!
Şuan Online!
BroserBros Kurucu Admin
*******
Admin



 Zootropolis: Hayvanlar Şehri



Antropomortik hayvanların bulunduğu bir şehirde, hayvanlar bir komplo’yu çıkarmak için birlikte çalışmalılar.

Zootropolis: Hayvanlar Şehri (2016) (Zootopia) | tt2948356 Filmi Imdb'den 460,000 kişi tarafından oylandı ve 8,0 puan aldı. Bu film için editör puanı %92 olarak belirlendi. İyi Seyirler!

Teknik Detaylar

Kod :
General
Unique ID                                : 81693391416389629842190261206101547558 (0x3D75932B40BF6D59BF42C29807405A26)
Complete name                            : C:\Users\Administrator\Desktop\1\Zootropolis.Hayvanlar.Şehri.2016.2160p.4K.BluRay.x265.10Bit.HDR.HEVC.TR.ENG.Filmbol.mkv
Format                                   : Matroska
Format version                           : Version 4
File size                                : 16.8 GiB
Duration                                 : 1 h 48 min
Overall bit rate mode                    : Variable
Overall bit rate                         : 22.1 Mb/s
Movie name                               : Zootropolis Hayvanlar Şehri - Zootopia - 2016 | Filmbol.org
Encoded date                             : UTC 2021-08-30 13:55:57
Writing application                      : mkvmerge v60.0.0 ('Are We Copies?') 64-bit
Writing library                          : libebml v1.4.2 + libmatroska v1.6.4

Video
ID                                       : 1
Format                                   : HEVC
Format/Info                              : High Efficiency Video Coding
Format profile                           : Main [email protected]@High
HDR format                               : SMPTE ST 2086, HDR10 compatible
Codec ID                                 : V_MPEGH/ISO/HEVC
Duration                                 : 1 h 48 min
Bit rate                                 : 13.6 Mb/s
Width                                    : 3 840 pixels
Height                                   : 1 608 pixels
Display aspect ratio                     : 2.40:1
Frame rate mode                          : Constant
Frame rate                               : 23.976 (24000/1001) FPS
Color space                              : YUV
Chroma subsampling                       : 4:2:0
Bit depth                                : 10 bits
Bits/(Pixel*Frame)                       : 0.092
Stream size                              : 10.3 GiB (62%)
Title                                    : 4K - Filmbol.org
Language                                 : English
Default                                  : Yes
Forced                                   : No
Color range                              : Limited
Color primaries                          : BT.2020
Transfer characteristics                 : PQ
Matrix coefficients                      : BT.2020 non-constant
Mastering display color primaries        : Display P3
Mastering display luminance              : min: 0.0050 cd/m2, max: 4000 cd/m2

Audio #1
ID                                       : 2
Format                                   : AC-3
Format/Info                              : Audio Coding 3
Commercial name                          : Dolby Digital
Codec ID                                 : A_AC3
Duration                                 : 1 h 48 min
Bit rate mode                            : Constant
Bit rate                                 : 384 kb/s
Channel(s)                               : 6 channels
Channel layout                           : L R C LFE Ls Rs
Sampling rate                            : 48.0 kHz
Frame rate                               : 31.250 FPS (1536 SPF)
Compression mode                         : Lossy
Stream size                              : 298 MiB (2%)
Title                                    : Türkçe - Filmbol.org
Language                                 : Turkish
Service kind                             : Complete Main
Default                                  : Yes
Forced                                   : No

Audio #2
ID                                       : 3
Format                                   : MLP FBA 16-ch
Format/Info                              : Meridian Lossless Packing FBA with 16-channel presentation
Commercial name                          : Dolby TrueHD with Dolby Atmos
Codec ID                                 : A_TRUEHD
Duration                                 : 1 h 48 min
Bit rate mode                            : Variable
Bit rate                                 : 7 155 kb/s
Maximum bit rate                         : 9 216 kb/s
Channel(s)                               : 8 channels
Channel layout                           : L R C LFE Ls Rs Lb Rb
Sampling rate                            : 48.0 kHz
Frame rate                               : 1 200.000 FPS (40 SPF)
Compression mode                         : Lossless
Stream size                              : 5.43 GiB (32%)
Title                                    : Orijinal Dil - Filmbol.org
Language                                 : English
Default                                  : Yes
Forced                                   : No
Number of dynamic objects                : 13
Bed channel count                        : 1 channel
Bed channel configuration                : LFE

Audio #3
ID                                       : 4
Format                                   : AC-3
Format/Info                              : Audio Coding 3
Commercial name                          : Dolby Digital
Codec ID                                 : A_AC3
Duration                                 : 1 h 48 min
Bit rate mode                            : Constant
Bit rate                                 : 640 kb/s
Channel(s)                               : 6 channels
Channel layout                           : L R C LFE Ls Rs
Sampling rate                            : 48.0 kHz
Frame rate                               : 31.250 FPS (1536 SPF)
Compression mode                         : Lossy
Stream size                              : 498 MiB (3%)
Title                                    : Orijinal Dil - Filmbol.org
Language                                 : English
Service kind                             : Complete Main
Default                                  : No
Forced                                   : No

Audio #4
ID                                       : 5
Format                                   : AAC LC
Format/Info                              : Advanced Audio Codec Low Complexity
Codec ID                                 : A_AAC-2
Duration                                 : 1 h 48 min
Bit rate                                 : 224 kb/s
Channel(s)                               : 6 channels
Channel layout                           : C L R Ls Rs LFE
Sampling rate                            : 48.0 kHz
Frame rate                               : 46.875 FPS (1024 SPF)
Compression mode                         : Lossy
Stream size                              : 174 MiB (1%)
Title                                    : Orijinal Dil - Filmbol.org
Language                                 : English
Default                                  : No
Forced                                   : No

Text #1
ID                                       : 6
Format                                   : PGS
Muxing mode                              : zlib
Codec ID                                 : S_HDMV/PGS
Codec ID/Info                            : Picture based subtitle format used on BDs/HD-DVDs
Duration                                 : 1 h 46 min
Bit rate                                 : 52.7 kb/s
Count of elements                        : 4592
Stream size                              : 40.3 MiB (0%)
Title                                    : Orijinal Dil - Filmbol.org
Language                                 : English
Default                                  : No
Forced                                   : No

Text #2
ID                                       : 7
Format                                   : UTF-8
Codec ID                                 : S_TEXT/UTF8
Codec ID/Info                            : UTF-8 Plain Text
Duration                                 : 1 h 39 min
Bit rate                                 : 77 b/s
Count of elements                        : 1743
Stream size                              : 56.6 KiB (0%)
Title                                    : Türkçe - Filmbol.org
Language                                 : Turkish
Default                                  : No
Forced                                   : No

Text #3
ID                                       : 8
Format                                   : UTF-8
Codec ID                                 : S_TEXT/UTF8
Codec ID/Info                            : UTF-8 Plain Text
Duration                                 : 1 h 38 min
Bit rate                                 : 71 b/s
Count of elements                        : 1698
Stream size                              : 52.0 KiB (0%)
Title                                    : Orijinal Dil - Filmbol.org
Language                                 : English
Default                                  : No
Forced                                   : No

Film Detayları


 Zootropolis: Hayvanlar Şehri

 Zootropolis: Hayvanlar Şehri

 Zootropolis: Hayvanlar Şehri


Film Fragmanı


Film İndir


Rar Şifresi: filmbol.org










Şuan Offine!
Rapor Et!
Şuan Offine!
sufferboy42 Cezalı Üye
  • Konular0
  • Mesajlar4
teşekkürlerr
Şuan Online!
Rapor Et!
Şuan Online!
neco52 Uzman Üye
**
Uzman Üye
  • Konular0
  • Mesajlar280
  • Rep puanı 0
Teşekkürler.

admin link açılmıyor bir sorun mu var  acaba ?
Şuan Online!
Rapor Et!
Şuan Online!
neco52 Uzman Üye
**
Uzman Üye
  • Konular0
  • Mesajlar280
  • Rep puanı 0
admin linki günceleyebilirmisin açılmıyor link ?
Şuan Online!
Rapor Et!
Şuan Online!
BroserBros Kurucu Admin
*******
Admin
(01-10-2021, Saat: 00:40)neco52 Adlı Kullanıcıdan Alıntı: admin linki günceleyebilirmisin açılmıyor link ?

@neco52  Link güncellenmiştir. Kırık link bildirimlerini konu altında gördüğünüz Rapor Et butonu ile yapın. Yorum olarak istenilen yardım taleplerine cevap vermemiz mümkün değil çünkü günde 100'den fazla yeni yorum geliyor ve takip edemeyiz.

İletişim bölümünden bilgi verdiğiniz için teşekkürler.
Şuan Online!
Rapor Et!
Şuan Online!
PuNkDuNk Üye
*
Üye
  • Konular0
  • Mesajlar174
  • Rep puanı 0
Teşekkürler
Şuan Offine!
Rapor Et!
Şuan Offine!
fevkalbeşer Eski Premium Üye
***
Eski PR Üye
  • Konular1
  • Mesajlar37
  • Rep puanı 0
Teşekkürler.
Şuan Offine!
Rapor Et!
Şuan Offine!
spawn231 Üye
*
Üye
  • Konular0
  • Mesajlar16
  • Rep puanı 0
Teşekkürler.
Şuan Online!
Rapor Et!
Şuan Online!
sadece1 Üye
*
Üye
  • Konular0
  • Mesajlar223
  • Rep puanı 0
Teşekkürler.
Şuan Offine!
Rapor Et!
Şuan Offine!
desdemir Üye
*
Üye
  • Konular0
  • Mesajlar150
  • Rep puanı 5
Teşekkürler.


Hızlı Menü: