Filmbol Forum Film İndir 3D v Warcraft: İki Dünyanın İlk Karşılaşması (Warcraft) - 2016 - TR+ORG - 3D | tt0803096
Bildirimi Kapat
Merhaba , site giderlerini bir nebze olsun karşılamak adına link kısaltma servisleri kullanmaya başladık. İndirme linkleri sizi ouo.io adresinde yönlendirecek, 3 saniye geçtikten sonra Get Link butonuna tıklayarak linke ulaşacaksınız. Premium üyeler bu durumdan etkilenmeyecektir.


Premium Üyelik Al

Warcraft: İki Dünyanın İlk Karşılaşması (Warcraft) - 2016 - TR+ORG - 3D | tt0803096
BroserBros
Warcraft: İki Dünyanın İlk Karşılaşması (Warcraft) - 2016 - TR+ORG - 3D | tt0803096
2
96
  • Derecelendirme: 5/5 - 1 oy
  • 1
  • 2
  • 3
  • 4
  • 5
Konuyu Okuyanlar:2 Ziyaretçi
Şuan Online!
Filmin Yayınlanma Tarihi: 2016 
Şuan Online!
BroserBros Kurucu Admin
*******
Admin


 Warcraft: İki Dünyanın İlk Karşılaşması



Bir ork ordusu, büyücüleri Guldan ile birlikte Azeroth gezegenine bir portal açarak istila etmeye çalışır, ancak bir sorun vardır ki, orklar dan bir klan düşmanlarının insanlar değil başkaları olduğunu düşünmektedirler. Azeroth savaşçıları ve muhalif ork klanları, orklara ve Guldon‘a karşı durmaya çalışacaklardır.

Warcraft: İki Dünyanın İlk Karşılaşması (2016) (Warcraft) | tt0803096 Filmi Imdb'den 250,000 kişi tarafından oylandı ve 6,8 puan aldı. Bu film için editör puanı %79 olarak belirlendi. İyi Seyirler!

Teknik Detaylar

Kod :
General
Unique ID                                : 9850752676219135445567168590578042775 (0x7692F9AC5B752370876E573BB5DC797)
Complete name                            : C:\Users\Administrator\Desktop\6\Warcraft.İki.Dünyanın.İlk.Karşılaşması.2016.3D.HSBS.BluRay.x264.TR.ENG.Filmbol.mkv
Format                                  : Matroska
Format version                          : Version 4
File size                                : 2.20 GiB
Duration                                : 2 h 3 min
Overall bit rate                        : 2 562 kb/s
Movie name                              : Warcraft: İki Dünyanın İlk Karşılaşması - Warcraft - 2016 | Filmbol.org
Encoded date                            : UTC 2021-08-04 09:21:56
Writing application                      : mkvmerge v59.0.0 ('Shining Star') 64-bit
Writing library                          : libebml v1.4.2 + libmatroska v1.6.4

Video
ID                                      : 1
Format                                  : AVC
Format/Info                              : Advanced Video Codec
Format profile                          : [email protected]
Format settings                          : CABAC / 4 Ref Frames
Format settings, CABAC                  : Yes
Format settings, Reference frames        : 4 frames
Codec ID                                : V_MPEG4/ISO/AVC
Duration                                : 2 h 3 min
Bit rate                                : 2 050 kb/s
Width                                    : 1 920 pixels
Height                                  : 784 pixels
Display aspect ratio                    : 2.40:1
Frame rate mode                          : Constant
Frame rate                              : 23.976 (24000/1001) FPS
Color space                              : YUV
Chroma subsampling                      : 4:2:0
Bit depth                                : 8 bits
Scan type                                : Progressive
Bits/(Pixel*Frame)                      : 0.057
Stream size                              : 1.76 GiB (80%)
Title                                    : 3D - Filmbol.org
Writing library                          : x264 core 148
Encoding settings                        : cabac=1 / ref=4 / deblock=1:-1:-1 / analyse=0x3:0x133 / me=umh / subme=9 / psy=1 / psy_rd=1.00:0.15 / mixed_ref=1 / me_range=24 / chroma_me=1 / trellis=2 / 8x8dct=1 / cqm=0 / deadzone=21,11 / fast_pskip=0 / chroma_qp_offset=-3 / threads=12 / lookahead_threads=1 / sliced_threads=0 / nr=0 / decimate=1 / interlaced=0 / bluray_compat=0 / constrained_intra=0 / bframes=3 / b_pyramid=2 / b_adapt=2 / b_bias=0 / direct=3 / weightb=1 / open_gop=0 / weightp=2 / keyint=250 / keyint_min=23 / scenecut=40 / intra_refresh=0 / rc_lookahead=60 / rc=2pass / mbtree=1 / bitrate=2050 / ratetol=1.0 / qcomp=0.60 / qpmin=0 / qpmax=69 / qpstep=4 / cplxblur=20.0 / qblur=0.5 / vbv_maxrate=31250 / vbv_bufsize=31250 / nal_hrd=none / filler=0 / ip_ratio=1.40 / aq=1:1.00
Default                                  : Yes
Forced                                  : No

Audio #1
ID                                      : 2
Format                                  : AC-3
Format/Info                              : Audio Coding 3
Commercial name                          : Dolby Digital
Codec ID                                : A_AC3
Duration                                : 2 h 3 min
Bit rate mode                            : Constant
Bit rate                                : 384 kb/s
Channel(s)                              : 2 channels
Channel layout                          : L R
Sampling rate                            : 48.0 kHz
Frame rate                              : 31.250 FPS (1536 SPF)
Compression mode                        : Lossy
Stream size                              : 338 MiB (15%)
Title                                    : Türkçe - Filmbol.org
Language                                : Turkish
Service kind                            : Complete Main
Default                                  : Yes
Forced                                  : No

Audio #2
ID                                      : 3
Format                                  : AAC LC
Format/Info                              : Advanced Audio Codec Low Complexity
Codec ID                                : A_AAC-2
Duration                                : 2 h 3 min
Bit rate                                : 127 kb/s
Channel(s)                              : 2 channels
Channel layout                          : L R
Sampling rate                            : 48.0 kHz
Frame rate                              : 46.875 FPS (1024 SPF)
Compression mode                        : Lossy
Stream size                              : 111 MiB (5%)
Title                                    : Orijinal Dil - Filmbol.org
Language                                : English
Default                                  : No
Forced                                  : No

Text
ID                                      : 4
Format                                  : UTF-8
Codec ID                                : S_TEXT/UTF8
Codec ID/Info                            : UTF-8 Plain Text
Duration                                : 1 h 52 min
Bit rate                                : 40 b/s
Count of elements                        : 858
Stream size                              : 33.1 KiB (0%)
Title                                    : Türkçe - Filmbol.org
Language                                : Turkish
Default                                  : No
Forced                                  : No

Film Detayları


 Warcraft: İki Dünyanın İlk Karşılaşması

 Warcraft: İki Dünyanın İlk Karşılaşması

 Warcraft: İki Dünyanın İlk Karşılaşması


Film Fragmanı


Film Detayları



Zip Şifresi: filmbol.org Aşağıdaki butona tıklayarak kopyalabilirsiniz.


Uptobox ile indir

1Fichier ile indir

1Fichier'den İndiremiyor musun? Tıklayın!





Filmbol Cloud

Bunun için üzgünüz ancak, bu linke sadece premium üyeler erişebilir.




WWW
Şuan Online!
Şuan Online!
rule06 Yeni Üye
*
Üye
  • Konular0
  • Mesajlar69
  • Rep puanı 1
fılmın baslıgı warcraft olmasına ragmen;
lınkler tarzan efsanesı adlı fılme  ait
duzeltırsenız sevınırım
Şuan Online!
Şuan Online!
BroserBros Kurucu Admin
*******
Admin
(27-08-2021, Saat: 03:21)rule06 Adlı Kullanıcıdan Alıntı: fılmın baslıgı warcraft olmasına ragmen;
lınkler tarzan efsanesı adlı fılme  ait
duzeltırsenız sevınırım

Uyarı için çok teşekkürler @rule06. Linkler düzeltildi, indirme yapabilirsiniz.


Hızlı Menü: