Filmbol Forum Film İndir FHD - FULL HD v Kral İçin Hologram (A Hologram for the King) - 2016 - TR+ORG - FHD - x264 | tt2980210
Bildirimi Kapat
Merhaba , site giderlerini bir nebze olsun karşılamak adına link kısaltma servisleri kullanmaya başladık. İndirme linkleri sizi ouo.io adresinde yönlendirecek, 3 saniye geçtikten sonra Get Link butonuna tıklayarak linke ulaşacaksınız. Premium üyeler bu durumdan etkilenmeyecektir.


Premium Üyelik Al

Kral İçin Hologram (A Hologram for the King) - 2016 - TR+ORG - FHD - x264 | tt2980210
BroserBros
Kral İçin Hologram (A Hologram for the King) - 2016 - TR+ORG - FHD - x264 | tt2980210
0
12
  • Derecelendirme: 0/5 - 0 oy
  • 1
  • 2
  • 3
  • 4
  • 5
Konuyu Okuyanlar:1 Ziyaretçi
Şuan Online!
Filmin Yayınlanma Tarihi: 2016 
Şuan Online!
BroserBros Kurucu Admin
*******
Admin


 Kral İçin Hologram



Alan Clay, 54 yaşında Amerikalı bir işadamıdır. İşleri hiç de yolunda gitmemektedir ve iflasın eşiğine gelmiştir. Bu durumdan kurtulabilmek için Anthony, gençlerden oluşan bir takımla birlikte Suudi Arabistan’a gider. Anthony orada IT endüstrisi üzerine girişim fikirlerini paylaşmaya çalışır. Ama onun geleneksel düşünceleri artık yeterince karlı değildir. Kral Abdullah’a sunulmak üzere, geliştirdikleri yepyeni Amerikan IT teknolojisini tanıtmak üzere ekip bir araya gelmiştir. Bu teknoloji sayesinde şehri ekonominin merkezine dönüştürebileceklerdir. Kral Abdullah’ı gergin bir şekilde beklerken bir yandan da Suudi Arabistan’ın iklim koşullarına uyum sağlamaya çalışan ekibi bir sürpriz beklemektedir: Çinliler daha ucuza mal edilebilecek bir çözüm önermişlerdir. Ekibin bunu öğrenmesiyle rekabet başlamış olur.

Kral İçin Hologram (2016) (A Hologram for the King) | tt2980210 Filmi Imdb'den 45,000 kişi tarafından oylandı ve 6,1 puan aldı. Bu film için editör puanı %69 olarak belirlendi. İyi Seyirler!

Teknik Detaylar

Kod :
General
Unique ID                                : 85419385825990064000856479828310959221 (0x40432CE06AF5DEF87165A789E1C32475)
Complete name                            : C:\Users\Administrator\Desktop\1\Kral.İçin.Hologram.2016.FHD.BluRay.x264.TR.ENG.Filmbol.mkv
Format                                   : Matroska
Format version                           : Version 4
File size                                : 3.71 GiB
Duration                                 : 1 h 38 min
Overall bit rate                         : 5 415 kb/s
Movie name                               : Kral İçin Hologram - A Holograf For The King - 2016 | Filmbol.org
Encoded date                             : UTC 2021-08-01 05:41:22
Writing application                      : mkvmerge v59.0.0 ('Shining Star') 64-bit
Writing library                          : libebml v1.4.2 + libmatroska v1.6.4

Video
ID                                       : 1
Format                                   : AVC
Format/Info                              : Advanced Video Codec
Format profile                           : [email protected]
Format settings                          : CABAC / 4 Ref Frames
Format settings, CABAC                   : Yes
Format settings, Reference frames        : 4 frames
Codec ID                                 : V_MPEG4/ISO/AVC
Duration                                 : 1 h 38 min
Bit rate                                 : 5 000 kb/s
Width                                    : 1 920 pixels
Height                                   : 802 pixels
Display aspect ratio                     : 2.40:1
Frame rate mode                          : Constant
Frame rate                               : 23.976 (24000/1001) FPS
Color space                              : YUV
Chroma subsampling                       : 4:2:0
Bit depth                                : 8 bits
Scan type                                : Progressive
Bits/(Pixel*Frame)                       : 0.135
Stream size                              : 3.29 GiB (89%)
Title                                    : FHD - Filmbol.org
Writing library                          : x264 core 157 r2969
Encoding settings                        : cabac=1 / ref=3 / deblock=1:0:0 / analyse=0x3:0x133 / me=hex / subme=7 / psy=1 / psy_rd=1.00:0.00 / mixed_ref=1 / me_range=16 / chroma_me=1 / trellis=1 / 8x8dct=1 / cqm=0 / deadzone=21,11 / fast_pskip=1 / chroma_qp_offset=-2 / threads=6 / lookahead_threads=1 / sliced_threads=0 / nr=0 / decimate=1 / interlaced=0 / bluray_compat=0 / constrained_intra=0 / bframes=3 / b_pyramid=2 / b_adapt=1 / b_bias=0 / direct=1 / weightb=1 / open_gop=0 / weightp=2 / keyint=250 / keyint_min=25 / scenecut=40 / intra_refresh=0 / rc_lookahead=40 / rc=abr / mbtree=1 / bitrate=5000 / ratetol=1.0 / qcomp=0.60 / qpmin=10 / qpmax=51 / qpstep=4 / ip_ratio=1.40 / aq=1:1.00
Default                                  : Yes
Forced                                   : No

Audio #1
ID                                       : 2
Format                                   : AC-3
Format/Info                              : Audio Coding 3
Codec ID                                 : A_AC3
Duration                                 : 1 h 36 min
Bit rate                                 : 192 kb/s
Channel(s)                               : 2 channels
Sampling rate                            : 48.0 kHz
Frame rate                               : 31.250 FPS (1536 SPF)
Compression mode                         : Lossy
Stream size                              : 133 MiB (3%)
Title                                    : Türkçe - Filmbol.org
Language                                 : Turkish
Default                                  : Yes
Forced                                   : No

Audio #2
ID                                       : 3
Format                                   : AAC LC
Format/Info                              : Advanced Audio Codec Low Complexity
Codec ID                                 : A_AAC-2
Duration                                 : 1 h 38 min
Bit rate                                 : 421 kb/s
Channel(s)                               : 6 channels
Channel layout                           : C L R Ls Rs LFE
Sampling rate                            : 48.0 kHz
Frame rate                               : 46.875 FPS (1024 SPF)
Compression mode                         : Lossy
Delay relative to video                  : 20 ms
Stream size                              : 296 MiB (8%)
Title                                    : Orijinal Dil - Filmbol.org
Language                                 : English
Default                                  : Yes
Forced                                   : No

Text
ID                                       : 4
Format                                   : UTF-8
Codec ID                                 : S_TEXT/UTF8
Codec ID/Info                            : UTF-8 Plain Text
Duration                                 : 1 h 30 min
Bit rate                                 : 69 b/s
Count of elements                        : 1157
Stream size                              : 46.3 KiB (0%)
Title                                    : Türkçe - Filmbol.org
Language                                 : Turkish
Default                                  : No
Forced                                   : No

Film Detayları


 Kral İçin Hologram

 Kral İçin Hologram

 Kral İçin Hologram


Film Fragmanı


Film Detayları



Zip Şifresi: filmbol.org Aşağıdaki butona tıklayarak kopyalabilirsiniz.





Filmbol Cloud

Bunun için üzgünüz ancak, bu linke sadece premium üyeler erişebilir.




WWW


Hızlı Menü: