Filmbol Forum Film İndir FHD - FULL HD v Turbo Çocuk (Turbo Kid) - 2015 - TR+ORG - FHD - x264 | tt3672742
Bildirimi Kapat
Merhaba , site giderlerini bir nebze olsun karşılamak adına link kısaltma servisleri kullanmaya başladık. İndirme linkleri sizi ouo.io adresinde yönlendirecek, 3 saniye geçtikten sonra Get Link butonuna tıklayarak linke ulaşacaksınız. Premium üyeler bu durumdan etkilenmeyecektir.


Premium Üyelik Al

Turbo Çocuk (Turbo Kid) - 2015 - TR+ORG - FHD - x264 | tt3672742
BroserBros
Turbo Çocuk (Turbo Kid) - 2015 - TR+ORG - FHD - x264 | tt3672742
0
12
  • Derecelendirme: 0/5 - 0 oy
  • 1
  • 2
  • 3
  • 4
  • 5
Konuyu Okuyanlar:1 Ziyaretçi
Şuan Online!
Filmin Yayınlanma Tarihi: 2015 
Şuan Online!
BroserBros Kurucu Admin
*******
Admin


 Turbo Çocuk



Post-apokaliptik bir gelecekte topladığı hurdalarla hayatta kalmaya çalışan, çizgi romanlara tutunmuş bir hayat süren genç ve yalnız Turbo Kid, Apple ile tanışmasıyla birlikte bir takım zorluklarla karşılaşır. Artık korkularıyla yüzleşmek ve istemeden de olsa hayatının aşkının kahramanı olmak zorundadır. Nükleer felaketten sonra çorak topraklara dönüşmüş bölgenin acımasız lideri Zeus, Kid ve Apple’ın peşini bırakmaz. Elinde kör talihinden ve antika bir silahtan başka bir şey olmayan Kid, hayal dünyasını kaplayan çizgi roman karakterlerinden öğrendikleriyle Apple’ı kurtarmak ve Çorak Topraklar’ı Zeus’un kötülüğünden temizlemek zorundadır.

Turbo Çocuk (2015) (Turbo Kid) | tt3672742 Filmi Imdb'den 30,000 kişi tarafından oylandı ve 6,7 puan aldı. Bu film için editör puanı %65 olarak belirlendi. İyi Seyirler!

Teknik Detaylar

Kod :
General
Unique ID                                : 101732507899788426746189753445190885931 (0x4C88F7E45B0EB7C2561C18B6132A622B)
Complete name                            : C:\Users\Administrator\Desktop\4\Turbo.Çocuk.2015.FHD.BluRay.x264.TR.ENG.Filmbol.mkv
Format                                   : Matroska
Format version                           : Version 4
File size                                : 3.78 GiB
Duration                                 : 1 h 32 min
Overall bit rate                         : 5 831 kb/s
Movie name                               : Turbo Çocuk - Turbo Kid - 2015 | Filmbol.org
Encoded date                             : UTC 2021-07-27 10:51:53
Writing application                      : mkvmerge v59.0.0 ('Shining Star') 64-bit
Writing library                          : libebml v1.4.2 + libmatroska v1.6.4
Cover                                    : Yes
Attachments                              : cover.jpg

Video
ID                                       : 1
Format                                   : AVC
Format/Info                              : Advanced Video Codec
Format profile                           : [email protected]
Format settings                          : CABAC / 5 Ref Frames
Format settings, CABAC                   : Yes
Format settings, Reference frames        : 5 frames
Codec ID                                 : V_MPEG4/ISO/AVC
Duration                                 : 1 h 32 min
Bit rate                                 : 5 000 kb/s
Width                                    : 1 920 pixels
Height                                   : 808 pixels
Display aspect ratio                     : 2.40:1
Frame rate mode                          : Constant
Frame rate                               : 23.976 (24000/1001) FPS
Color space                              : YUV
Chroma subsampling                       : 4:2:0
Bit depth                                : 8 bits
Scan type                                : Progressive
Bits/(Pixel*Frame)                       : 0.134
Stream size                              : 3.24 GiB (86%)
Title                                    : FHD - Filmbol.org
Writing library                          : x264 core 146 r2538 121396c
Encoding settings                        : cabac=1 / ref=5 / deblock=1:-2:-2 / analyse=0x3:0x133 / me=umh / subme=11 / psy=1 / psy_rd=1.00:0.25 / mixed_ref=1 / me_range=32 / chroma_me=1 / trellis=2 / 8x8dct=1 / cqm=0 / deadzone=21,11 / fast_pskip=0 / chroma_qp_offset=-4 / threads=6 / lookahead_threads=1 / sliced_threads=0 / nr=0 / decimate=1 / interlaced=0 / bluray_compat=0 / constrained_intra=0 / bframes=4 / b_pyramid=2 / b_adapt=2 / b_bias=0 / direct=3 / weightb=1 / open_gop=0 / weightp=2 / keyint=240 / keyint_min=23 / scenecut=40 / intra_refresh=0 / rc_lookahead=60 / rc=2pass / mbtree=1 / bitrate=5000 / ratetol=1.0 / qcomp=0.60 / qpmin=0 / qpmax=69 / qpstep=4 / cplxblur=20.0 / qblur=0.5 / ip_ratio=1.40 / aq=1:1.00
Language                                 : English
Default                                  : Yes
Forced                                   : No

Audio #1
ID                                       : 2
Format                                   : AC-3
Format/Info                              : Audio Coding 3
Commercial name                          : Dolby Digital
Codec ID                                 : A_AC3
Duration                                 : 1 h 32 min
Bit rate mode                            : Constant
Bit rate                                 : 192 kb/s
Channel(s)                               : 2 channels
Channel layout                           : L R
Sampling rate                            : 48.0 kHz
Frame rate                               : 31.250 FPS (1536 SPF)
Compression mode                         : Lossy
Delay relative to video                  : -125 ms
Stream size                              : 128 MiB (3%)
Title                                    : Türkçe - Filmbol.org
Language                                 : Turkish
Service kind                             : Complete Main
Default                                  : Yes
Forced                                   : No

Audio #2
ID                                       : 3
Format                                   : AC-3
Format/Info                              : Audio Coding 3
Commercial name                          : Dolby Digital
Codec ID                                 : A_AC3
Duration                                 : 1 h 32 min
Bit rate mode                            : Constant
Bit rate                                 : 640 kb/s
Channel(s)                               : 6 channels
Channel layout                           : L R C LFE Ls Rs
Sampling rate                            : 48.0 kHz
Frame rate                               : 31.250 FPS (1536 SPF)
Compression mode                         : Lossy
Delay relative to video                  : -125 ms
Stream size                              : 425 MiB (11%)
Title                                    : Orijinal Dil - Filmobl.org
Language                                 : English
Service kind                             : Complete Main
Default                                  : No
Forced                                   : No

Text
ID                                       : 4
Format                                   : UTF-8
Codec ID                                 : S_TEXT/UTF8
Codec ID/Info                            : UTF-8 Plain Text
Duration                                 : 1 h 26 min
Bit rate                                 : 36 b/s
Count of elements                        : 563
Stream size                              : 22.8 KiB (0%)
Title                                    : Türkçe - Filmbol.org
Language                                 : Turkish
Default                                  : No
Forced                                   : No

Film Detayları


 Turbo Çocuk

 Turbo Çocuk

 Turbo Çocuk


Film Fragmanı


Film Detayları



Zip Şifresi: filmbol.org Aşağıdaki butona tıklayarak kopyalabilirsiniz.





Filmbol Cloud

Bunun için üzgünüz ancak, bu linke sadece premium üyeler erişebilir.




WWW


Hızlı Menü: