Filmbol Forum Film İndir 3D v Bana Kahraman Olduğumu Söyledi (Billy Lynn's Long Halftime Walk) - 2016 - TR+ORG - 3D | tt2513074
Bildirimi Kapat
Merhaba , site giderlerini bir nebze olsun karşılamak adına link kısaltma servisleri kullanmaya başladık. İndirme linkleri sizi ouo.io adresinde yönlendirecek, 3 saniye geçtikten sonra Get Link butonuna tıklayarak linke ulaşacaksınız. Premium üyeler bu durumdan etkilenmeyecektir.


Premium Üyelik Al

Bana Kahraman Olduğumu Söyledi (Billy Lynn's Long Halftime Walk) - 2016 - TR+ORG - 3D | tt2513074
BroserBros
Bana Kahraman Olduğumu Söyledi (Billy Lynn's Long Halftime Walk) - 2016 - TR+ORG - 3D | tt2513074
2
172
  • Derecelendirme: 5/5 - 1 oy
  • 1
  • 2
  • 3
  • 4
  • 5
Konuyu Okuyanlar:3 Ziyaretçi
Şuan Online!
Filmin Yayınlanma Tarihi: 2016 
Şuan Online!
BroserBros Kurucu Admin
*******
Admin


 Bana Kahraman Olduğumu Söyledi



Amerika’nın Irak’ı işgal ettiği dönemde geçen satirik savaş filmi Ben Fountain’in romanından beyazperdeye uyarlandı. Bravo adlı askeri timin sekiz üyesi, Al-Ansakar’daki çarpışmadan burnu bile kanamadan sağ çıkmayı başarır. Çatışmayı kayda alan muhabir, görüntüleri kanalına gönderir; Fox ise haber olarak yayınlar. Sonrasında grup kahraman olarak ilan edilecek ve bu durum her birinin hayatını değiştirecektir.
İki Oscar ödüllü yönetmen Ang Lee’nin yönetmen koltuğunda bulunduğu filmin oyuncu kadrosunda Kristen Stewart, Vin Diesel, Garrett Hedlund, Steve Martin ve Chris Tucker gibi isimler bulunuyor.

Bana Kahraman Olduğumu Söyledi (2016) (Billy Lynn's Long Halftime Walk) | tt2513074 Filmi Imdb'den 23,000 kişi tarafından oylandı ve 6,2 puan aldı. Bu film için editör puanı %65 olarak belirlendi. İyi Seyirler!

Teknik Detaylar

Kod :
General
Unique ID                                : 18753854886115524965117095477761098574 (0xE1BDC6F11CBA1899A21EA76E335434E)
Complete name                            : C:\Users\Administrator\Desktop\6\Bana.Kahraman.Olduğumu.Söyledi.2016.3D.HSBS.BluRay.x264.TR.ENG.Filmbol.mkv
Format                                   : Matroska
Format version                           : Version 4
File size                                : 2.04 GiB
Duration                                 : 1 h 52 min
Overall bit rate                         : 2 589 kb/s
Movie name                               : Bana Kahraman Olduğumu Söyledi - Billy Lynn's Long Halftime Walk - 2016 | Filmbol.org
Encoded date                             : UTC 2021-07-25 07:55:39
Writing application                      : mkvmerge v59.0.0 ('Shining Star') 64-bit
Writing library                          : libebml v1.4.2 + libmatroska v1.6.4

Video
ID                                       : 1
Format                                   : AVC
Format/Info                              : Advanced Video Codec
Format profile                           : [email protected]
Format settings                          : CABAC / 4 Ref Frames
Format settings, CABAC                   : Yes
Format settings, Reference frames        : 4 frames
Codec ID                                 : V_MPEG4/ISO/AVC
Duration                                 : 1 h 52 min
Bit rate                                 : 2 050 kb/s
Width                                    : 1 920 pixels
Height                                   : 1 024 pixels
Display aspect ratio                     : 1.85:1
Frame rate mode                          : Constant
Frame rate                               : 23.976 (24000/1001) FPS
Color space                              : YUV
Chroma subsampling                       : 4:2:0
Bit depth                                : 8 bits
Scan type                                : Progressive
Bits/(Pixel*Frame)                       : 0.043
Stream size                              : 1.61 GiB (79%)
Title                                    : 3D - Filmbol.org
Writing library                          : x264 core 148
Encoding settings                        : cabac=1 / ref=4 / deblock=1:-1:-1 / analyse=0x3:0x133 / me=umh / subme=9 / psy=1 / psy_rd=1.00:0.15 / mixed_ref=1 / me_range=24 / chroma_me=1 / trellis=2 / 8x8dct=1 / cqm=0 / deadzone=21,11 / fast_pskip=0 / chroma_qp_offset=-3 / threads=12 / lookahead_threads=1 / sliced_threads=0 / nr=0 / decimate=1 / interlaced=0 / bluray_compat=0 / constrained_intra=0 / bframes=3 / b_pyramid=2 / b_adapt=2 / b_bias=0 / direct=3 / weightb=1 / open_gop=0 / weightp=2 / keyint=250 / keyint_min=23 / scenecut=40 / intra_refresh=0 / rc_lookahead=60 / rc=2pass / mbtree=1 / bitrate=2050 / ratetol=1.0 / qcomp=0.60 / qpmin=0 / qpmax=69 / qpstep=4 / cplxblur=20.0 / qblur=0.5 / vbv_maxrate=31250 / vbv_bufsize=31250 / nal_hrd=none / filler=0 / ip_ratio=1.40 / aq=1:1.00
Default                                  : Yes
Forced                                   : No

Audio #1
ID                                       : 2
Format                                   : AC-3
Format/Info                              : Audio Coding 3
Commercial name                          : Dolby Digital
Codec ID                                 : A_AC3
Duration                                 : 1 h 52 min
Bit rate mode                            : Constant
Bit rate                                 : 384 kb/s
Channel(s)                               : 6 channels
Channel layout                           : L R C LFE Ls Rs
Sampling rate                            : 48.0 kHz
Frame rate                               : 31.250 FPS (1536 SPF)
Compression mode                         : Lossy
Stream size                              : 310 MiB (15%)
Title                                    : Türkçe - Filmbol.org
Language                                 : Turkish
Service kind                             : Complete Main
Default                                  : Yes
Forced                                   : No

Audio #2
ID                                       : 3
Format                                   : AAC LC
Format/Info                              : Advanced Audio Codec Low Complexity
Codec ID                                 : A_AAC-2
Duration                                 : 1 h 52 min
Bit rate                                 : 122 kb/s
Channel(s)                               : 2 channels
Channel layout                           : L R
Sampling rate                            : 48.0 kHz
Frame rate                               : 46.875 FPS (1024 SPF)
Compression mode                         : Lossy
Stream size                              : 98.1 MiB (5%)
Title                                    : Orijinal Dil - Filmbol.org
Language                                 : English
Default                                  : No
Forced                                   : No

Text
ID                                       : 4
Format                                   : PGS
Muxing mode                              : zlib
Codec ID                                 : S_HDMV/PGS
Codec ID/Info                            : Picture based subtitle format used on BDs/HD-DVDs
Duration                                 : 1 h 50 min
Bit rate                                 : 64.1 kb/s
Count of elements                        : 3858
Stream size                              : 50.7 MiB (2%)
Title                                    : Türkçe - Filmbol.org
Language                                 : Turkish
Default                                  : No
Forced                                   : No

Film Detayları


 Bana Kahraman Olduğumu Söyledi

 Bana Kahraman Olduğumu Söyledi

 Bana Kahraman Olduğumu Söyledi


Film Fragmanı


Film Detayları



Zip Şifresi: filmbol.org Aşağıdaki butona tıklayarak kopyalabilirsiniz.


Uptobox ile indir

1Fichier ile indir

1Fichier'den İndiremiyor musun? Tıklayın!





Filmbol Cloud

Bunun için üzgünüz ancak, bu linke sadece premium üyeler erişebilir.




WWW
Şuan Online!
Şuan Online!
rule06 Yeni Üye
*
Üye
  • Konular0
  • Mesajlar69
  • Rep puanı 1
valla 3D versyonunun oldugundan bıle haberımın olmadıgı bır fılm.
arsıve ekleyelım tesekkurler.
Şuan Offine!
Şuan Offine!
Kingstone Uzman Üye
**
Uzman Üye
  • Konular0
  • Mesajlar38
  • Rep puanı 0
Lİfe of Pİ'nin yönetmenindenmiş bakalım nasıl.


Hızlı Menü: