Filmbol Forum Film İndir BRRip XviD v Geçen Yaz - 2021 - TR - BRRip XviD | tt13067004
Bildirimi Kapat
Merhaba , site giderlerini bir nebze olsun karşılamak adına link kısaltma servisleri kullanmaya başladık. İndirme linkleri sizi ouo.io adresinde yönlendirecek, 3 saniye geçtikten sonra Get Link butonuna tıklayarak linke ulaşacaksınız. Premium üyeler bu durumdan etkilenmeyecektir.


Premium Üyelik Al

Geçen Yaz - 2021 - TR - BRRip XviD | tt13067004
TheSteeL
Geçen Yaz - 2021 - TR - BRRip XviD | tt13067004
2
122
  • Derecelendirme: 0/5 - 0 oy
  • 1
  • 2
  • 3
  • 4
  • 5
Konuyu Okuyanlar:2 Ziyaretçi
Şuan Online!
Filmin Yayınlanma Tarihi: 2021 
Şuan Online!
TheSteeL Chief Executive Officer
******
CEO


 Geçen Yaz



Küçükken kim aşık olmaz ki? Geçen Yaz filmi babası ile birlikte köye gidip burada vakit geçirmek zorunda olan Deniz'in hikâyesini konu ediniyor. Deniz bu durumdan pek mumnun değildir. Fakat mecburi olduğundan, babası ile her yaz gitmektedir. Bu mecburiyet gittikleri köyde kendini bir kıza kaptırması ile bambaşka bir hâl alır. Artık deniz köye gitmek için gün sayıyor hâle gelmiştir. Fakat köyde bi kızdan hoşlanan bir çok kişi olduğundan, Deniz'in işi bir hayli zordur...

Geçen Yaz (2021) | tt13067004 Filmi Imdb'den 1500 kişi tarafından oylandı ve 6,4 puan aldı. Bu film için editör puanı %70 olarak belirlendi. İyi Seyirler!

Teknik Detaylar

Kod :
General
Unique ID                                : 5016244973268109462655785704791283288 (0x3C617F8CE87F5F1B77B068EF3751658)
Complete name                            : /home/TheSteel/Desktop/6/Geçen.Yaz.2021.HDRip.XViD.TR.Filmbol.avi
Format                                   : Matroska
Format version                           : Version 4
File size                                : 1.04 GiB
Duration                                 : 1 h 41 min
Overall bit rate                         : 1 468 kb/s
Movie name                               : Last Summer - Geçen Yaz - 2021 | Filmbol.org
Encoded date                             : UTC 2021-07-10 16:38:17
Writing application                      : mkvmerge v31.0.0 ('Dolores In A Shoestand') 64-bit
Writing library                          : libebml v1.3.6 + libmatroska v1.4.9
FileExtension_Invalid                    : mkv mk3d mka mks

Video
ID                                       : 1
Format                                   : MPEG-4 Visual
Format profile                           : Advanced [email protected]
Format settings                          : BVOP2
Format settings, BVOP                    : 2
Format settings, QPel                    : No
Format settings, GMC                     : No warppoints
Format settings, Matrix                  : Default (MPEG)
Muxing mode                              : Packed bitstream
Codec ID                                 : V_MS/VFW/FOURCC / XVID
Codec ID/Hint                            : XviD
Duration                                 : 1 h 41 min
Bit rate                                 : 1 339 kb/s
Width                                    : 720 pixels
Height                                   : 404 pixels
Display aspect ratio                     : 16:9
Frame rate mode                          : Constant
Frame rate                               : 24.000 FPS
Color space                              : YUV
Chroma subsampling                       : 4:2:0
Bit depth                                : 8 bits
Scan type                                : Progressive
Compression mode                         : Lossy
Bits/(Pixel*Frame)                       : 0.192
Stream size                              : 975 MiB (91%)
Title                                    : Last Summer - Geçen Yaz - 2021 | Filmbol.org
Writing library                          : XviD 64
Default                                  : Yes
Forced                                   : No

Audio
ID                                       : 2
Format                                   : MPEG Audio
Format version                           : Version 1
Format profile                           : Layer 3
Format settings                          : Joint stereo / MS Stereo
Codec ID                                 : A_MPEG/L3
Codec ID/Hint                            : MP3
Duration                                 : 1 h 41 min
Bit rate mode                            : Constant
Bit rate                                 : 128 kb/s
Channel(s)                               : 2 channels
Sampling rate                            : 48.0 kHz
Frame rate                               : 41.667 FPS (1152 SPF)
Compression mode                         : Lossy
Stream size                              : 93.3 MiB (9%)
Title                                    : Last Summer - Geçen Yaz - 2021 | Filmbol.org
Default                                  : Yes
Forced                                   : No

Film Detayları


 Geçen Yaz

 Geçen Yaz

 Geçen Yaz


Film Fragmanı


Film Detayları



Zip Şifresi: filmbol.org Aşağıdaki butona tıklayarak kopyalabilirsiniz.



Uptobox ile indir

1Fichier ile indir

1Fichier'den İndiremiyor musun? Tıklayın!





Filmbol Cloud

Bunun için üzgünüz ancak, bu linke sadece premium üyeler erişebilir.




WWW
Şuan Offine!
Şuan Offine!
cerhan82 Yeni Üye
*
Üye
  • Konular0
  • Mesajlar1
  • Rep puanı 0
Elinize sağlık, teşekkürler.
Şuan Offine!
Şuan Offine!
ozandd59 Yeni Üye
*
Üye
  • Konular0
  • Mesajlar1
  • Rep puanı 0
Sağol hocam


Hızlı Menü: